Поиск

(Jazz-Funk, Reggae) [CD] S.O.L.A.R. (Solar) - Faith for My Mind - 1983 (2006 Japan Edition), FLAC (tracks+.cue), lossless

(Jazz-Funk, Reggae) [CD] S.O.L.A.R. (Solar) - Faith for My Mind - 1983 (2006 Japan Edition), FLAC (tracks+.cue), lossless
Треклист:
S.O.L.A.R. - Faith for My Mind
Жанр: Jazz-Funk, Reggae
Носитель: CD
Страна-производитель диска (релиза): Япония
Год издания: 1983 (2006)
Издатель (лейбл): P-Vine Records (Deep Jazz Reality)
Номер по каталогу: PCD-23807
Страна исполнителя (группы): США
Аудиокодек: FLAC (*.flac)
Тип рипа: tracks+.cue
Битрейт аудио: lossless
Продолжительность: 42:09
Источник (релизер): MimiSoul (what)
Наличие сканов в содержимом раздачи: нет
Треклист:
01. Faith for My Mind (Imani) - 5:55
02. It's a New Day (Imani) - 7:10
03. To the Most Holy Place (Imani) - 3:39
04. Walk Together Children (Imani) - 5:18
05. Living for the Most High (Azanyah) - 4:24
06. Eat I-Tal Food (Azanyah-Imani) - 3:01
07. Rejoice (Hollis-Jendayi) - 5:10
08. Vanity (Hollis-Jendayi) - 3:38
09. Rainbow (Azanyah-Gross) - 3:54
 
Лог создания рипа
Exact Audio Copy V1.0 beta 3 from 29. August 2011
EAC extraction logfile from 22. April 2014, 21:19
S.O.L.A.R. / Faith For My Mind
Used drive : MATSHITADVD-RAM UJ-850S Adapter: 0 ID: 0
Read mode : Secure
Utilize accurate stream : Yes
Defeat audio cache : Yes
Make use of C2 pointers : No
Read offset correction : 102
Overread into Lead-In and Lead-Out : No
Fill up missing offset samples with silence : Yes
Delete leading and trailing silent blocks : No
Null samples used in CRC calculations : Yes
Used interface : Native Win32 interface for Win NT & 2000
Gap handling : Appended to previous track
Used output format : User Defined Encoder
Selected bitrate : 1024 kBit/s
Quality : High
Add ID3 tag : No
Command line compressor : C:\Program Files\Exact Audio Copy\Flac\flac.exe
Additional command line options : -8 -V -T "ARTIST=%artist%" -T "TITLE=%title%" -T "ALBUM=%albumtitle%" -T "DATE=%year%" -T "TRACKNUMBER=%tracknr%" -T "GENRE=%genre%" -T "PERFORMER=%albuminterpret%" -T "COMPOSER=%composer%" %haslyrics%--tag-from-file=LYRICS="%lyricsfile%"%haslyrics% -T "ALBUMARTIST=%albumartist%" -T "DISCNUMBER=%cdnumber%" -T "TOTALDISCS=%totalcds%" -T "TOTALTRACKS=%numtracks%" -T "COMMENT=%comment%" %source% -o %dest%
TOC of the extracted CD
Track | Start | Length | Start sector | End sector
---------------------------------------------------------
1 | 0:00.00 | 5:54.39 | 0 | 26588
2 | 5:54.39 | 7:09.72 | 26589 | 58835
3 | 13:04.36 | 3:38.47 | 58836 | 75232
4 | 16:43.08 | 5:18.30 | 75233 | 99112
5 | 22:01.38 | 4:23.62 | 99113 | 118899
6 | 26:25.25 | 3:01.08 | 118900 | 132482
7 | 29:26.33 | 5:09.61 | 132483 | 155718
8 | 34:36.19 | 3:38.18 | 155719 | 172086
9 | 38:14.37 | 3:53.49 | 172087 | 189610
Track 1
Filename F:\[UPLOADS]\S.O.L.A.R. - Faith For My Mind (1983) [FLAC]\01 Faith For My Mind.wav
Pre-gap length 0:00:02.00
Peak level 93.4 %
Extraction speed 1.5 X
Track quality 100.0 %
Test CRC E2460F6E
Copy CRC E2460F6E
Track not present in AccurateRip database
Copy OK
Track 2
Filename F:\[UPLOADS]\S.O.L.A.R. - Faith For My Mind (1983) [FLAC]\02 It's A New Day.wav
Peak level 99.4 %
Extraction speed 1.7 X
Track quality 99.9 %
Test CRC C1C64EB3
Copy CRC C1C64EB3
Track not present in AccurateRip database
Copy OK
Track 3
Filename F:\[UPLOADS]\S.O.L.A.R. - Faith For My Mind (1983) [FLAC]\03 To The Most Holy Place.wav
Peak level 99.4 %
Extraction speed 1.8 X
Track quality 100.0 %
Test CRC 9A7C49B8
Copy CRC 9A7C49B8
Track not present in AccurateRip database
Copy OK
Track 4
Filename F:\[UPLOADS]\S.O.L.A.R. - Faith For My Mind (1983) [FLAC]\04 Walk Together Children.wav
Peak level 86.7 %
Extraction speed 1.9 X
Track quality 99.9 %
Test CRC BB10B7CD
Copy CRC BB10B7CD
Track not present in AccurateRip database
Copy OK
Track 5
Filename F:\[UPLOADS]\S.O.L.A.R. - Faith For My Mind (1983) [FLAC]\05 Living For The Most High.wav
Peak level 89.2 %
Extraction speed 2.2 X
Track quality 100.0 %
Test CRC 1F0FEABA
Copy CRC 1F0FEABA
Track not present in AccurateRip database
Copy OK
Track 6
Filename F:\[UPLOADS]\S.O.L.A.R. - Faith For My Mind (1983) [FLAC]\06 Eat I-Tal Food.wav
Pre-gap length 0:00:01.96
Peak level 99.9 %
Extraction speed 2.1 X
Track quality 100.0 %
Test CRC E6C8DD6C
Copy CRC E6C8DD6C
Track not present in AccurateRip database
Copy OK
Track 7
Filename F:\[UPLOADS]\S.O.L.A.R. - Faith For My Mind (1983) [FLAC]\07 Rejoice.wav
Pre-gap length 0:00:01.42
Peak level 99.4 %
Extraction speed 2.4 X
Track quality 100.0 %
Test CRC F016F523
Copy CRC F016F523
Track not present in AccurateRip database
Copy OK
Track 8
Filename F:\[UPLOADS]\S.O.L.A.R. - Faith For My Mind (1983) [FLAC]\08 Vanity.wav
Peak level 86.2 %
Extraction speed 2.4 X
Track quality 100.0 %
Test CRC 34675118
Copy CRC 34675118
Track not present in AccurateRip database
Copy OK
Track 9
Filename F:\[UPLOADS]\S.O.L.A.R. - Faith For My Mind (1983) [FLAC]\09 Rainbow.wav
Pre-gap length 0:00:01.21
Peak level 87.2 %
Extraction speed 2.5 X
Track quality 100.0 %
Test CRC D24282B0
Copy CRC D24282B0
Track not present in AccurateRip database
Copy OK
None of the tracks are present in the AccurateRip database
No errors occurred
End of status report
---- CUETools DB Plugin V2.1.3
[CTDB TOCID: uOy9jmA9Eh1o4Nc3gVZHDvpRtLY-] disk not present in database, Submit result: uOy9jmA9Eh1o4Nc3gVZHDvpRtLY- has been uploaded
==== Log checksum 2508EE1419974C425A78ED218A5A65A4E7C9B8C996EC053164CF1ED6A93BF5D7 ====
 
Содержание индексной карты (.CUE)
REM GENRE Jazz
REM DATE 1983
REM DISCID 8309E009
REM COMMENT "ExactAudioCopy v1.0b3"
CATALOG 4995879238073
PERFORMER "S.O.L.A.R."
TITLE "Faith for My Mind"
FILE "01 - Faith for My Mind.wav" WAVE
TRACK 01 AUDIO
TITLE "Faith for My Mind"
PERFORMER "S.O.L.A.R."
INDEX 01 00:00:00
FILE "02 - It's a New Day.wav" WAVE
TRACK 02 AUDIO
TITLE "It's a New Day"
PERFORMER "S.O.L.A.R."
INDEX 01 00:00:00
FILE "03 - To the Most Holy Place.wav" WAVE
TRACK 03 AUDIO
TITLE "To the Most Holy Place"
PERFORMER "S.O.L.A.R."
INDEX 01 00:00:00
FILE "04 - Walk Together Children.wav" WAVE
TRACK 04 AUDIO
TITLE "Walk Together Children"
PERFORMER "S.O.L.A.R."
INDEX 01 00:00:00
FILE "05 - Living for the Most High.wav" WAVE
TRACK 05 AUDIO
TITLE "Living for the Most High"
PERFORMER "S.O.L.A.R."
INDEX 01 00:00:00
TRACK 06 AUDIO
TITLE "Eat I-Tal Food"
PERFORMER "S.O.L.A.R."
INDEX 00 04:21:65
FILE "06 - Eat I-Tal Food.wav" WAVE
INDEX 01 00:00:00
TRACK 07 AUDIO
TITLE "Rejoice"
PERFORMER "S.O.L.A.R."
INDEX 00 02:59:51
FILE "07 - Rejoice.wav" WAVE
INDEX 01 00:00:00
FILE "08 - Vanity.wav" WAVE
TRACK 08 AUDIO
TITLE "Vanity"
PERFORMER "S.O.L.A.R."
INDEX 01 00:00:00
TRACK 09 AUDIO
TITLE "Rainbow"
PERFORMER "S.O.L.A.R."
INDEX 00 03:37:02
FILE "09 - Rainbow.wav" WAVE
INDEX 01 00:00:00
 
Отчет CUETools
[CUETools log; Date: 30.04.2015 1:34:40; Version: 2.1.5]
[CTDB TOCID: uOy9jmA9Eh1o4Nc3gVZHDvpRtLY-] found.
Track | CTDB Status
1 | (1/1) Accurately ripped
2 | (1/1) Accurately ripped
3 | (1/1) Accurately ripped
4 | (1/1) Accurately ripped
5 | (1/1) Accurately ripped
6 | (1/1) Accurately ripped
7 | (1/1) Accurately ripped
8 | (1/1) Accurately ripped
9 | (1/1) Accurately ripped
[AccurateRip ID: 000fb1db-007044aa-8309e009] disk not present in database.
Track Peak [ CRC32 ] [W/O NULL] [ LOG ]
-- 99,9 [9E3F93F7] [8D84C80F]
01 93,4 [E2460F6E] [A46A1312] CRC32
02 99,4 [C1C64EB3] [BFD85BA3] CRC32
03 99,4 [9A7C49B8] [3DA44C13] CRC32
04 86,7 [BB10B7CD] [C8A115D8] CRC32
05 89,2 [1F0FEABA] [749F4679] CRC32
06 99,9 [E6C8DD6C] [4FB64A2C] CRC32
07 99,4 [F016F523] [7D2795E8] CRC32
08 86,2 [34675118] [EF0A913D] CRC32
09 87,2 [D24282B0] [3679C7D1] CRC32
 
Об альбоме (сборнике)
A beautiful, beautiful little record – as righteous and soulful as some of the best spiritual jazz classics of the 70s – and arguably even rarer, as it was only issued on a tiny label from Atlanta! Solar have a sound that uses 3 female lead vocalists in chorus formation – one that comes across with the righteousness of Roy Ayers' best use of such a style, but which is taken even further in a wave of soul jazz expression – in a mode that reminds us a lot of the work of Dee Dee Bridgewater or Jean Carn singing together on key early records by Norman Connors, Carlos Garnett, or Mtume! The vocals share equally with the instrumentation on the set – delivering a message that's rich and positive, but never cliched or hokey. Instrumentation includes flute, soprano sax, piano, and some great percussion – and playing is inside, but exploratory – definitely in a post-Coltrane vein. Titles include "Rejoice", "Vanity", "Living For The Most High", "Faith For My Mind", and "It's A New Day". Really great stuff – and right up there with the classics of spiritual soul jazz!
 
Состав
S.O.L.A.R. (Source Of Life Arkestral Revelation)
Rukiya Imani - acoustic piano, lead vocals (#1-6,9)
Emanuel Ibrahim - flute, soprano saxophone, vocals
Humaa Lewis - violin, vocals
Claudius Fabien - congas, percussion, vocals
Mamaniji Azanyah - bass, vocals
Kariba Jendayi - acoustic piano, vocals, lead vocals (#7)
Atiya Damali Hollis - vocals, lead vocal (#8)
Ariyo - vocals
Ajamu - steel drums
Jerome Crichton - drums
Youth's Vocals on #6: Kamau, Maramba, Rafi, Moksha, Jwanza, Ngina, Ayana, Marlene
Recorded at Haywood's Recording Studio, Atlanta, GA in 1982-1983.
Приватный:
Нет (DHT включён)
Размер:
262.24 Мб (274,982,596 байт) » файлов: 17
Участники:
0 раздают, 0 качают (0 участников всего)
Внешние участники:
1 раздают, 0 качают (1 участников всего) [ Обновить ]
No seeders - write personal message to user M0p94ok. Нет сидеров - пишите личное сообщение пользователю M0p94ok.
05:51
54
Нет комментариев. Ваш будет первым!