Вы используете незарегистрированную версию компонента "Вкладки"!

Поиск

(Jazz Funk, Quiet Storm) [CD] VA - Beginner's Guide To Jazz Funk - 2013 (3 CD - Box), FLAC (image+.cue), lossless

(Jazz Funk, Quiet Storm) [CD] VA - Beginner's Guide To Jazz Funk - 2013 (3 CD - Box), FLAC (image+.cue), lossless
Треклист:
VA - Beginner's Guide To Jazz Funk
Жанр: Jazz Funk, Quiet Storm
Носитель: CD
Страна-производитель диска: UK
Год издания: 2013
Издатель (лейбл): Nascente
Номер по каталогу: NSBOX098
Страна: US
Аудиокодек: FLAC (*.flac)
Тип рипа: image+.cue
Битрейт аудио: lossless
Продолжительность: 1:18:30+1:00:34+1:01:44
Источник (релизер): Nicton
Наличие сканов в содержимом раздачи: да
Треклист:
CD 1 - Anthems
1 Donald Byrd - Dominoes
2 Gary Bartz - Music Is My Sanctuary
3 Gene Harris - As
4 Brass Construction - Movin’
5 Eddie Henderson - Prance On
6 Donald Byrd - Change Makes You Want To Hussle
7 Mystic Merlin - Just Can’t Give You Up
8 Raoul De Souza - Daisy Mae
9 Incognito - Parisienne Girl
10 100% Pure Poison - Windy C
11 Bobby Lyle - The Genie
12 Light Of The World - London Town
13 Maze - While I’m Alone
14 Bobbi Humphreys - New York Times
CD 2 - Funk With My Jazz
1 Donald Byrd - Think Twice
2 Gene Harris - Koko and Lee Roe
3 Eddie Henderson - Inside You
4 Earl Kugh - Captain Caribé
5 Lou Donaldson - Sassy Soul Strut
6 Bobbie Humphreys - Chicago Damn
7 John Lee & Gerry Brown - Down The Way
8 Noel Pointer - Hold On
9 Chico Hamilton - Abdullah’s and Ibrahim
10 Willie Bobo - Funk De Mambo
11 Ronnie Foster - Cheshire Cat
CD 3 - Quiet Storm
1 Ronnie Laws - Tidal Wave
2 Carmen McRae - Can’t Hide Love
3 Caldera - Sky Islands
4 Nancy Wilson - Sunny
5 Alphonse Mouzon - Sunshower
6 Bobby Hutcherson - People Make The World Go Round
7 Maxi - Lover To Lover
8 Gene Dunlap - It’s Just The Way I Feel
9 Ronnie Laws - Every Generation
10 Moacir Santos - Anon
11 Maze - Look At California
 
Лог создания рипа

 
Log 1
[pre]Exact Audio Copy V1.0 beta 3 from 29. August 2011
Отчёт EAC об извлечении, выполненном 23. декабря 2013, 15:36
Various Artists / Beginner's Guide To Jazz Funk: Anthems (Cd 1)
Дисковод: Optiarc DVD RW AD-7700S Adapter: 1 ID: 0
Режим чтения : Достоверность
Использование точного потока : Да
Отключение кэша аудио : Да
Использование указателей C2 : Нет
Коррекция смещения при чтении : 48
Способность читать области Lead-in и Lead-out : Нет
Заполнение пропущенных сэмплов тишиной : Да
Удаление блоков с тишиной в начале и конце : Нет
При вычислениях CRC использовались нулевые сэмплы : Да
Интерфейс : Встроенный Win32-интерфейс для Win NT/2000
Выходной формат : Пользовательский кодировщик
Выбранный битрейт : 128 kBit/s
Качество : Высокий
Добавление ID3-тега : Нет
Утилита сжатия : C:\Program Files (x86)\Exact Audio Copy\Flac\flac.exe
Дополнительные параметры : -V -8 %source%
TOC извлечённого CD
Трек | Старт | Длительность | Начальный сектор | Конечный сектор
---------------------------------------------------------------------
1 | 0:00.00 | 4:35.50 | 0 | 20674
2 | 4:35.50 | 6:19.52 | 20675 | 49151
3 | 10:55.27 | 7:30.37 | 49152 | 82938
4 | 18:25.64 | 3:51.67 | 82939 | 100330
5 | 22:17.56 | 5:20.63 | 100331 | 124393
6 | 27:38.44 | 5:07.48 | 124394 | 147466
7 | 32:46.17 | 7:01.23 | 147467 | 179064
8 | 39:47.40 | 4:31.41 | 179065 | 199430
9 | 44:19.06 | 6:43.34 | 199431 | 229689
10 | 51:02.40 | 5:30.14 | 229690 | 254453
11 | 56:32.54 | 5:56.16 | 254454 | 281169
12 | 62:28.70 | 4:31.37 | 281170 | 301531
13 | 67:00.32 | 4:37.43 | 301532 | 322349
14 | 71:38.00 | 6:52.06 | 322350 | 353255
Характеристики диапазона извлечения и сообщения об ошибках
Выбранный диапазон
Имя файла E:\Music\FLACи\Beginner's Guide To Jazz Funk\Anthems (Cd 1)\Various Artists - Beginner's Guide To Jazz Funk- Anthems (Cd 1).wav
Пиковый уровень 99.2 %
Скорость извлечения 5.5 X
Качество диапазона 99.9 %
CRC теста 87B44FA4
CRC копии 87B44FA4
Копирование... OK
Ошибок не произошло
AccurateRip: сводка
Трек 1 : извлечено точно (доверие 4) [468BBC8A] (AR v2)
Трек 2 : извлечено точно (доверие 4) [C9A4FF54] (AR v2)
Трек 3 : извлечено точно (доверие 4) [68359015] (AR v2)
Трек 4 : извлечено точно (доверие 4) [67E0FEF0] (AR v2)
Трек 5 : извлечено точно (доверие 4) [06676461] (AR v2)
Трек 6 : извлечено точно (доверие 4) [3F3EDDD0] (AR v2)
Трек 7 : извлечено точно (доверие 4) [7E16DEA6] (AR v2)
Трек 8 : извлечено точно (доверие 4) [8610F1FE] (AR v2)
Трек 9 : извлечено точно (доверие 4) [9C94C984] (AR v2)
Трек 10 : извлечено точно (доверие 4) [20DDA373] (AR v2)
Трек 11 : извлечено точно (доверие 4) [EC96AFBC] (AR v2)
Трек 12 : извлечено точно (доверие 4) [2A8ECE6D] (AR v2)
Трек 13 : извлечено точно (доверие 4) [5DAA9E48] (AR v2)
Трек 14 : извлечено точно (доверие 4) [3586E7DE] (AR v2)
Все треки извлечены точно
Конец отчёта
==== Контрольная сумма отчёта 470F8E9E7D4828B56F4A434DCA724A08AF3999FB627543A716FB01F1F59C61C4 ====
 
Log 2
[pre]Exact Audio Copy V1.0 beta 3 from 29. August 2011
Отчёт EAC об извлечении, выполненном 23. декабря 2013, 14:27
Various Artists / Beginner's Guide To Jazz Funk: Funk With My Jazz (Cd 2)
Дисковод: Optiarc DVD RW AD-7700S Adapter: 1 ID: 0
Режим чтения : Достоверность
Использование точного потока : Да
Отключение кэша аудио : Да
Использование указателей C2 : Нет
Коррекция смещения при чтении : 48
Способность читать области Lead-in и Lead-out : Нет
Заполнение пропущенных сэмплов тишиной : Да
Удаление блоков с тишиной в начале и конце : Нет
При вычислениях CRC использовались нулевые сэмплы : Да
Интерфейс : Встроенный Win32-интерфейс для Win NT/2000
Выходной формат : Пользовательский кодировщик
Выбранный битрейт : 128 kBit/s
Качество : Высокий
Добавление ID3-тега : Нет
Утилита сжатия : C:\Program Files (x86)\Exact Audio Copy\Flac\flac.exe
Дополнительные параметры : -V -8 %source%
TOC извлечённого CD
Трек | Старт | Длительность | Начальный сектор | Конечный сектор
---------------------------------------------------------------------
1 | 0:00.00 | 6:13.35 | 0 | 28009
2 | 6:13.35 | 6:04.57 | 28010 | 55366
3 | 12:18.17 | 4:48.32 | 55367 | 76998
4 | 17:06.49 | 5:21.39 | 76999 | 101112
5 | 22:28.13 | 4:39.50 | 101113 | 122087
6 | 27:07.63 | 6:33.27 | 122088 | 151589
7 | 33:41.15 | 5:25.47 | 151590 | 176011
8 | 39:06.62 | 5:19.35 | 176012 | 199971
9 | 44:26.22 | 4:15.14 | 199972 | 219110
10 | 48:41.36 | 3:44.30 | 219111 | 235940
11 | 52:25.66 | 8:08.53 | 235941 | 272593
Характеристики диапазона извлечения и сообщения об ошибках
Выбранный диапазон
Имя файла E:\Music\FLACи\Beginner's Guide To Jazz Funk\Funk With My Jazz (Cd 2)\Various Artists - Beginner's Guide To Jazz Funk- Funk With My Jazz (Cd 2).wav
Пиковый уровень 99.2 %
Скорость извлечения 5.0 X
Качество диапазона 100.0 %
CRC теста C5EA8AED
CRC копии C5EA8AED
Копирование... OK
Ошибок не произошло
AccurateRip: сводка
Трек 1 : извлечено точно (доверие 3) [CB293AD2] (AR v2)
Трек 2 : извлечено точно (доверие 3) [A00E76D4] (AR v2)
Трек 3 : извлечено точно (доверие 3) [5D4C9FCC] (AR v2)
Трек 4 : извлечено точно (доверие 3) [8E18982A] (AR v2)
Трек 5 : извлечено точно (доверие 3) [C97DD49D] (AR v2)
Трек 6 : извлечено точно (доверие 3) [632295B5] (AR v2)
Трек 7 : извлечено точно (доверие 3) [F829E710] (AR v2)
Трек 8 : извлечено точно (доверие 3) [162EB549] (AR v2)
Трек 9 : извлечено точно (доверие 3) [10B8A3B4] (AR v2)
Трек 10 : извлечено точно (доверие 3) [5BDF3D74] (AR v2)
Трек 11 : извлечено точно (доверие 3) [ED5A49D3] (AR v2)
Все треки извлечены точно
Конец отчёта
==== Контрольная сумма отчёта 1F8DE696F0DE84D5E9276660EA6969652FA18AC96A055993D558AA9A0FA395C6 ====
 
Log 3
Exact Audio Copy V1.0 beta 3 from 29. August 2011
Отчёт EAC об извлечении, выполненном 23. декабря 2013, 15:01
Various Artists / Beginner's Guide To Jazz Funk: Quiet Storm (Cd 3)
Дисковод: Optiarc DVD RW AD-7700S Adapter: 1 ID: 0
Режим чтения : Достоверность
Использование точного потока : Да
Отключение кэша аудио : Да
Использование указателей C2 : Нет
Коррекция смещения при чтении : 48
Способность читать области Lead-in и Lead-out : Нет
Заполнение пропущенных сэмплов тишиной : Да
Удаление блоков с тишиной в начале и конце : Нет
При вычислениях CRC использовались нулевые сэмплы : Да
Интерфейс : Встроенный Win32-интерфейс для Win NT/2000
Выходной формат : Пользовательский кодировщик
Выбранный битрейт : 128 kBit/s
Качество : Высокий
Добавление ID3-тега : Нет
Утилита сжатия : C:\Program Files (x86)\Exact Audio Copy\Flac\flac.exe
Дополнительные параметры : -V -8 %source%
TOC извлечённого CD
Трек | Старт | Длительность | Начальный сектор | Конечный сектор
---------------------------------------------------------------------
1 | 0:00.00 | 4:06.73 | 0 | 18522
2 | 4:06.73 | 3:55.37 | 18523 | 36184
3 | 8:02.35 | 6:42.62 | 36185 | 66396
4 | 14:45.22 | 4:22.29 | 66397 | 86075
5 | 19:07.51 | 4:17.48 | 86076 | 105398
6 | 23:25.24 | 4:42.74 | 105399 | 126622
7 | 28:08.23 | 5:53.11 | 126623 | 153108
8 | 34:01.34 | 4:15.39 | 153109 | 172272
9 | 38:16.73 | 8:37.72 | 172273 | 211119
10 | 46:54.70 | 8:42.60 | 211120 | 250329
11 | 55:37.55 | 6:06.22 | 250330 | 277801
Характеристики диапазона извлечения и сообщения об ошибках
Выбранный диапазон
Имя файла E:\Music\FLACи\Beginner's Guide To Jazz Funk\Quiet Storm (Cd 3)\Various Artists - Beginner's Guide To Jazz Funk- Quiet Storm (Cd 3).wav
Пиковый уровень 98.4 %
Скорость извлечения 5.0 X
Качество диапазона 100.0 %
CRC теста 76283343
CRC копии 76283343
Копирование... OK
Ошибок не произошло
AccurateRip: сводка
Трек 1 : извлечено точно (доверие 3) [4B096042] (AR v2)
Трек 2 : извлечено точно (доверие 3) [17F2B2D9] (AR v2)
Трек 3 : извлечено точно (доверие 3) [F8093D84] (AR v2)
Трек 4 : извлечено точно (доверие 3) [F3F36D6D] (AR v2)
Трек 5 : извлечено точно (доверие 3) [01938A6E] (AR v2)
Трек 6 : извлечено точно (доверие 3) [1D597F34] (AR v2)
Трек 7 : извлечено точно (доверие 3) [45405F9D] (AR v2)
Трек 8 : извлечено точно (доверие 3) [5F5BAAF8] (AR v2)
Трек 9 : извлечено точно (доверие 3) [7E83DB96] (AR v2)
Трек 10 : извлечено точно (доверие 3) [22DFB6FF] (AR v2)
Трек 11 : извлечено точно (доверие 3) [87BDB105] (AR v2)
Все треки извлечены точно
Конец отчёта
==== Контрольная сумма отчёта 5841950D418F3288E661D48236027146407DAA0D4E7F3F73DF041C8CC035FE68 ====
 
Содержание индексной карты (.CUE)

 
CUE 1
[pre]REM GENRE Funk
REM DATE 2013
REM DISCID C512660E
REM COMMENT "ExactAudioCopy v1.0b3"
PERFORMER "Various Artists"
TITLE "Beginner's Guide To Jazz Funk: Anthems (Cd 1)"
FILE "Various Artists - Beginner's Guide To Jazz Funk- Anthems (Cd 1).flac" WAVE
TRACK 01 AUDIO
TITLE "(Fallin' Like) Dominoes"
PERFORMER "Donald Byrd"
ISRC USBN20500216
INDEX 01 00:00:00
TRACK 02 AUDIO
TITLE "Music Is My Sanctuary"
PERFORMER "Gary Bartz"
ISRC USCA27700094
INDEX 00 04:33:57
INDEX 01 04:35:50
TRACK 03 AUDIO
TITLE "As"
PERFORMER "Gene Harris"
ISRC USBN29400149
INDEX 00 10:53:73
INDEX 01 10:55:27
TRACK 04 AUDIO
TITLE "Movin' (Single Edit)"
PERFORMER "Brass Construction"
ISRC USCA27600168
INDEX 00 18:24:13
INDEX 01 18:25:64
TRACK 05 AUDIO
TITLE "Prance On"
PERFORMER "Eddie Henderson"
ISRC USCA29500845
INDEX 00 22:15:74
INDEX 01 22:17:56
TRACK 06 AUDIO
TITLE "Change (Makes You Want To Hustle)"
PERFORMER "Donald Byrd"
ISRC USBN27500035
INDEX 00 27:36:60
INDEX 01 27:38:44
TRACK 07 AUDIO
TITLE "Just Can't Give You Up (Single Version)"
PERFORMER "Mystic Merlin"
ISRC USCA20803501
INDEX 00 32:44:38
INDEX 01 32:46:17
TRACK 08 AUDIO
TITLE "Daisy Mae"
PERFORMER "Raul De Souza"
ISRC USCA29801701
INDEX 00 39:45:35
INDEX 01 39:47:40
TRACK 09 AUDIO
TITLE "Parisienne Girl"
PERFORMER "Incognito"
ISRC GBAYK8000038
INDEX 00 44:16:65
INDEX 01 44:19:06
TRACK 10 AUDIO
TITLE "Windy C (Edit)"
PERFORMER "100% Pure Poison"
ISRC GB01A0800476
INDEX 00 51:01:40
INDEX 01 51:02:40
TRACK 11 AUDIO
TITLE "The Genie"
PERFORMER "Bobby Lyle"
ISRC USCA29400260
INDEX 00 56:31:10
INDEX 01 56:32:54
TRACK 12 AUDIO
TITLE "London Town"
PERFORMER "Light Of The World"
ISRC GBAYK8000039
INDEX 00 62:27:20
INDEX 01 62:28:70
TRACK 13 AUDIO
TITLE "While I'm Alone"
PERFORMER "Maze Featuring Frankie Beverly"
ISRC USCA28800153
INDEX 00 66:58:72 INDEX 01 67:00:32
TRACK 14 AUDIO
TITLE "New York Times"
PERFORMER "Bobbi Humphrey"
ISRC USBN29200057
INDEX 00 71:36:54
INDEX 01 71:38:00
 
CUE 2
REM GENRE Funk
REM DATE 2013
REM DISCID 8F0E320B
REM COMMENT "ExactAudioCopy v1.0b3"
PERFORMER "Various Artists"
TITLE "Beginner's Guide To Jazz Funk: Funk With My Jazz (Cd 2)"
FILE "Various Artists - Beginner's Guide To Jazz Funk- Funk With My Jazz (Cd 2).flac" WAVE
TRACK 01 AUDIO
TITLE "Think Twice"
PERFORMER "Donald Byrd"
ISRC USBN29100100
INDEX 01 00:00:00
TRACK 02 AUDIO
TITLE "Koko And Lee"
PERFORMER "Gene Harris"
ISRC USBN29901188
INDEX 00 06:11:32
INDEX 01 06:13:35
TRACK 03 AUDIO
TITLE "Inside You"
PERFORMER "Eddie Henderson"
ISRC USBN29400112
INDEX 00 12:15:28
INDEX 01 12:18:17
TRACK 04 AUDIO
TITLE "Captain Caribe"
PERFORMER "Earl Klugh"
ISRC USBN20500116
INDEX 00 17:03:13
INDEX 01 17:06:49
TRACK 05 AUDIO
TITLE "Sassy Soul Strut"
PERFORMER "Lou Donaldson"
ISRC USBN20701035
INDEX 00 22:25:64
INDEX 01 22:28:13
TRACK 06 AUDIO
TITLE "Chicago, Damn"
PERFORMER "Bobbi Humphrey"
ISRC USBN29800965
INDEX 00 27:04:43
INDEX 01 27:07:63
TRACK 07 AUDIO
TITLE "Down The Way"
PERFORMER "John Lee And Jerry Brown"
ISRC USBN21000453
INDEX 00 33:39:03
INDEX 01 33:41:15
TRACK 08 AUDIO
TITLE "Hold On"
PERFORMER "Noel Pointer"
ISRC USBN29800992
INDEX 00 39:05:04
INDEX 01 39:06:62
TRACK 09 AUDIO
TITLE "Abdullah And Abraham"
PERFORMER "Chico Hamilton"
ISRC USBN29500205
INDEX 00 44:25:05
INDEX 01 44:26:22
TRACK 10 AUDIO
TITLE "Funky Sneakers"
PERFORMER "Willie Bobo"
ISRC USCA20704817
INDEX 00 48:40:01
INDEX 01 48:41:36
TRACK 11 AUDIO
TITLE "Cheshire Cat"
PERFORMER "Ronnie Foster"
ISRC USBN20701037
INDEX 00 52:24:07
INDEX 01 52:25:66
 
CUE 3
REM GENRE Funk
REM DATE 2013
REM DISCID A30E780B
REM COMMENT "ExactAudioCopy v1.0b3"
PERFORMER "Various Artists"
TITLE "Beginner's Guide To Jazz Funk: Quiet Storm (Cd 3)"
FILE "Various Artists - Beginner's Guide To Jazz Funk- Quiet Storm (Cd 3).flac" WAVE
TRACK 01 AUDIO
TITLE "Tidal Wave"
PERFORMER "Ronnie Laws"
ISRC USEM37500004
INDEX 01 00:00:00
TRACK 02 AUDIO
TITLE "Can't Hide Love"
PERFORMER "Carmen Mcrae"
ISRC USBN29500207
INDEX 00 04:05:36
INDEX 01 04:06:73
TRACK 03 AUDIO
TITLE "Sunshine"
PERFORMER "Nancy Wilson"
INDEX 00 08:00:41
INDEX 01 08:02:35
TRACK 04 AUDIO
TITLE "Sunflower (Aka Sunshower)"
PERFORMER "Alphonse Mouzon"
ISRC USBN29500204
INDEX 00 14:43:12
INDEX 01 14:45:22
TRACK 05 AUDIO
TITLE "Lover To Lover"
PERFORMER "Maxi"
ISRC USBN20900358
INDEX 00 19:05:46
INDEX 01 19:07:51
TRACK 06 AUDIO
TITLE "It's Just The Way I Feel"
PERFORMER "Gene Dunlap"
ISRC USCA29300325
INDEX 00 23:23:23
INDEX 01 23:25:24
TRACK 07 AUDIO
TITLE "Every Generation"
PERFORMER "Ronnie Laws"
ISRC USBN20500097
INDEX 00 28:06:12
INDEX 01 28:08:23
TRACK 08 AUDIO
TITLE "Anon"
PERFORMER "Moacir Santos"
ISRC USBN21200852
INDEX 00 33:59:21
INDEX 01 34:01:34
TRACK 09 AUDIO
TITLE "Look At California"
PERFORMER "Maze Featuring Frankie Beverley"
ISRC USCA20400162
INDEX 00 38:15:01
INDEX 01 38:16:73
TRACK 10 AUDIO
TITLE "People Make The World Go Round"
PERFORMER "Bobby Hutcherson"
ISRC USBN20000806
INDEX 00 46:53:50
INDEX 01 46:54:70
TRACK 11 AUDIO
TITLE "Sky Islands"
PERFORMER "Caldera"
ISRC USCA29400258
INDEX 00 55:36:08
INDEX 01 55:37:55
Any questions -> support@pro-jazz.com. По всем вопросам пишите -> support@pro-jazz.com
23:31
169
Нет комментариев. Ваш будет первым!