Поиск

(Jazz-Funk, Fusion) [CD] Ntu with Gary Bartz - Singerella: A Ghetto Fairy Tale (1973-1974) - 2010, FLAC (tracks+.cue), lossless

Треклист:
Ntu with Gary Bartz - Singerella: A Ghetto Fairy Tale
Жанр: Jazz-Funk, Fusion
Носитель: CD
Страна-производитель диска: Великобритания
Год издания: 2010
Издатель (лейбл): BGP Records/Ace Records
Номер по каталогу: CDBGPM 219
Страна: США
Аудиокодек: FLAC (*.flac)
Тип рипа: tracks+.cue
Битрейт аудио: lossless
Продолжительность: 39:39
Источник (релизер): yowlz
Наличие сканов в содержимом раздачи: да
Треклист:
01. St. Felix Street (Eaves) - 4:58
02. Dozens (The Sounding Song) (Bartz) - 4:37
03. I Don't Care (Eaves-King) - 6:44
04. Blind Man (Bartz) - 3:01
05. Singerella (A Ghetto Fairy Tale) (Bartz) - 6:25
06. Lady Love (Bartz) - 6:16
07. Mellow Yellow (Bartz) - 4:13
08. Nation Time (Bartz) - 3:25
Состав:
Gary Bartz - clarinet, soprano saxophone, alto saxophone, mouth harp, synthesizer, percussion, vocals
Maynard Parker (#1,2,4-7), Hector Centeno (#3,8) - guitar
Hubert Eaves - electric piano, acoustic piano, clavinet
James Benjamin - electric bass
Howard King - drums
Kenneth Nash - percussion (#4,8)
Recorded at C.I. Recording, New York in November 1973 - February 1974.
 
Лог создания рипа
Exact Audio Copy V0.99 prebeta 5 from 4. May 2009
EAC extraction logfile from 6. January 2011, 23:51
Gary Bartz / Singerella--A Ghetto Fairy Tale
Used drive : TSSTcorpCDDVDW SH-S203N Adapter: 0 ID: 2
Read mode : Secure
Utilize accurate stream : Yes
Defeat audio cache : Yes
Make use of C2 pointers : No
Read offset correction : 6
Overread into Lead-In and Lead-Out : No
Fill up missing offset samples with silence : Yes
Delete leading and trailing silent blocks : No
Null samples used in CRC calculations : Yes
Used interface : Installed external ASPI interface
Gap handling : Appended to previous track
Used output format : User Defined Encoder
Selected bitrate : 768 kBit/s
Quality : High
Add ID3 tag : No
Command line compressor : C:\Program Files\Exact Audio Copy\Flac\flac.exe
Additional command line options : -8 -V -T "ARTIST=%a" -T "TITLE=%t" -T "ALBUM=%g" -T "DATE=%y" -T "TRACKNUMBER=%n" -T "TOTALTRACKS=%x" -T "GENRE=%m" -T "ALBUMARTIST=%v" -T "ALBUM ARTIST=%v" -T "COMMENT=EAC V0.99 pb5, Secure Mode, Test & Copy, AccurateRip,
TOC of the extracted CD
Track | Start | Length | Start sector | End sector
---------------------------------------------------------
1 | 0:00.00 | 4:58.29 | 0 | 22378
2 | 4:58.29 | 4:37.31 | 22379 | 43184
3 | 9:35.60 | 6:44.36 | 43185 | 73520
4 | 16:20.21 | 3:01.31 | 73521 | 87126
5 | 19:21.52 | 6:25.03 | 87127 | 116004
6 | 25:46.55 | 6:15.46 | 116005 | 144175
7 | 32:02.26 | 4:12.41 | 144176 | 163116
8 | 36:14.67 | 3:25.30 | 163117 | 178521
Track 1
Filename J:\New Rips\Gary Bartz - Singerella--A Ghetto Fairy Tale (2010) [FLAC] {BGP Records CDBGPM 219 rec 1973-74}\01 - St Felix Street.wav
Pre-gap length 0:00:02.00
Peak level 98.8 %
Track quality 100.0 %
Test CRC E52D1C70
Copy CRC E52D1C70
Accurately ripped (confidence 1) [1427383F]
Copy OK
Track 2
Filename J:\New Rips\Gary Bartz - Singerella--A Ghetto Fairy Tale (2010) [FLAC] {BGP Records CDBGPM 219 rec 1973-74}\02 - Dozens (The Sounding Song).wav
Pre-gap length 0:00:01.61
Peak level 98.8 %
Track quality 100.0 %
Test CRC 931C5BE2
Copy CRC 931C5BE2
Accurately ripped (confidence 1) [06DFE8BC]
Copy OK
Track 3
Filename J:\New Rips\Gary Bartz - Singerella--A Ghetto Fairy Tale (2010) [FLAC] {BGP Records CDBGPM 219 rec 1973-74}\03 - I Don't Care.wav
Pre-gap length 0:00:01.68
Peak level 98.8 %
Track quality 100.0 %
Test CRC 4F076A18
Copy CRC 4F076A18
Accurately ripped (confidence 1) [EB2B70AE]
Copy OK
Track 4
Filename J:\New Rips\Gary Bartz - Singerella--A Ghetto Fairy Tale (2010) [FLAC] {BGP Records CDBGPM 219 rec 1973-74}\04 - Blind Man.wav
Pre-gap length 0:00:01.58
Peak level 98.8 %
Track quality 100.0 %
Test CRC AAF48AF9
Copy CRC AAF48AF9
Accurately ripped (confidence 1) [FE04ECFE]
Copy OK
Track 5
Filename J:\New Rips\Gary Bartz - Singerella--A Ghetto Fairy Tale (2010) [FLAC] {BGP Records CDBGPM 219 rec 1973-74}\05 - Singerella--A Ghetto Fairytale.wav
Pre-gap length 0:00:01.62
Peak level 98.8 %
Track quality 100.0 %
Test CRC 904D0FB5
Copy CRC 904D0FB5
Accurately ripped (confidence 1) [78BA2FE9]
Copy OK
Track 6
Filename J:\New Rips\Gary Bartz - Singerella--A Ghetto Fairy Tale (2010) [FLAC] {BGP Records CDBGPM 219 rec 1973-74}\06 - Lady Love.wav
Pre-gap length 0:00:01.69
Peak level 98.8 %
Track quality 100.0 %
Test CRC 77DC1F64
Copy CRC 77DC1F64
Accurately ripped (confidence 1) [1D98F9BB]
Copy OK
Track 7
Filename J:\New Rips\Gary Bartz - Singerella--A Ghetto Fairy Tale (2010) [FLAC] {BGP Records CDBGPM 219 rec 1973-74}\07 - Mellow Yellow.wav
Pre-gap length 0:00:01.44
Peak level 98.8 %
Track quality 100.0 %
Test CRC B87CAA78
Copy CRC B87CAA78
Accurately ripped (confidence 1) [81BE85E2]
Copy OK
Track 8
Filename J:\New Rips\Gary Bartz - Singerella--A Ghetto Fairy Tale (2010) [FLAC] {BGP Records CDBGPM 219 rec 1973-74}\08 - Nation Time.wav
Pre-gap length 0:00:01.14
Peak level 98.8 %
Track quality 100.0 %
Test CRC A620967B
Copy CRC A620967B
Accurately ripped (confidence 1) [6117EB11]
Copy OK
All tracks accurately ripped
No errors occurred
End of status report
 
Содержание индексной карты (.CUE)
REM GENRE Jazz
REM DATE 2010
REM DISCID 68094C08
REM COMMENT "ExactAudioCopy v0.99pb5"
PERFORMER "Gary Bartz Ntu Troop"
TITLE "Singerella: A Ghetto Fairy Tale"
FILE "01 - St. Felix Street.wav" WAVE
TRACK 01 AUDIO
TITLE "St. Felix Street"
PERFORMER "Gary Bartz Ntu Troop"
INDEX 01 00:00:00
TRACK 02 AUDIO
TITLE "Dozens (The Sounding Song)"
PERFORMER "Gary Bartz Ntu Troop"
INDEX 00 04:56:58
FILE "02 - Dozens (The Sounding Song).wav" WAVE
INDEX 01 00:00:00
TRACK 03 AUDIO
TITLE "I Don't Care"
PERFORMER "Gary Bartz Ntu Troop"
INDEX 00 04:35:55
FILE "03 - I Don't Care.wav" WAVE
INDEX 01 00:00:00
TRACK 04 AUDIO
TITLE "Blind Man"
PERFORMER "Gary Bartz Ntu Troop"
INDEX 00 06:42:67
FILE "04 - Blind Man.wav" WAVE
INDEX 01 00:00:00
TRACK 05 AUDIO
TITLE "Singerella (A Ghetto Fairy Tale)"
PERFORMER "Gary Bartz Ntu Troop"
INDEX 00 02:59:59
FILE "05 - Singerella (A Ghetto Fairy Tale).wav" WAVE
INDEX 01 00:00:00
TRACK 06 AUDIO
TITLE "Lady Love"
PERFORMER "Gary Bartz Ntu Troop"
INDEX 00 06:23:26
FILE "06 - Lady Love.wav" WAVE
INDEX 01 00:00:00
TRACK 07 AUDIO
TITLE "Mellow Yellow"
PERFORMER "Gary Bartz Ntu Troop"
INDEX 00 06:14:13
FILE "07 - Mellow Yellow.wav" WAVE
INDEX 01 00:00:00
TRACK 08 AUDIO
TITLE "Nation Time"
PERFORMER "Gary Bartz Ntu Troop"
INDEX 00 04:11:30
FILE "08 - Nation Time.wav" WAVE
INDEX 01 00:00:00
 
Отчет CUETools
[CUETools log; Date: 15.09.2014 13:55:14; Version: 2.1.5]
[CTDB TOCID: yrl18h.53ufWC.uYYg7NuWiP8pI-] found.
Track | CTDB Status
1 | (1/1) Accurately ripped
2 | (1/1) Accurately ripped
3 | (1/1) Accurately ripped
4 | (1/1) Accurately ripped
5 | (1/1) Accurately ripped
6 | (1/1) Accurately ripped
7 | (1/1) Accurately ripped
8 | (1/1) Accurately ripped
[AccurateRip ID: 000ca280-00543e21-68094c08] found.
Track [ CRC | V2 ] Status
01 [1427383f|2f5fda21] (4+0/4) Accurately ripped
02 [06dfe8bc|7911496c] (4+0/4) Accurately ripped
03 [eb2b70ae|23b99b16] (4+0/4) Accurately ripped
04 [fe04ecfe|725fa739] (4+0/4) Accurately ripped
05 [78ba2fe9|bc645688] (4+0/4) Accurately ripped
06 [1d98f9bb|d7e31e61] (4+0/4) Accurately ripped
07 [81be85e2|c476bd46] (4+0/4) Accurately ripped
08 [6117eb11|59e68840] (4+0/4) Accurately ripped
Track Peak [ CRC32 ] [W/O NULL] [ LOG ]
-- 98,8 [476CFDFE] [2757378A]
01 98,8 [E52D1C70] [DA256A05] CRC32
02 98,8 [931C5BE2] [1D896B37] CRC32
03 98,8 [4F076A18] [8E7EE4E6] CRC32
04 98,8 [AAF48AF9] [D2F6B84E] CRC32
05 98,8 [904D0FB5] [ACA11BA2] CRC32
06 98,8 [77DC1F64] [46220CD9] CRC32
07 98,8 [B87CAA78] [647FE494] CRC32
08 98,8 [A620967B] [A9F4AFD9] CRC32
 
Review by Thom Jurek
Released in 1974, Singerella: A Ghetto Fairy Tale by Gary Bartz and his evolving NTU Troop was a self-produced affair, and the first without vocalist Andy Bey. Bartz was exploring a CTI smooth groove aesthetic by this time, and was deeply invested in the funky side of jazz. He took a hard turn toward jazz-funk's smoother soul side here, an approach that was cemented in the final mix by Larry Mizell, who, along with his brother Fonce, would become his producers for the remainder of the 1970s. Bartz also changed his composition style for Singerella; these are, in large part, shorter, tighter, and feature quirky if readily accessible melodies. Some of these tracks yield fine improvisational moves despite their heavy reliance on funk vamps. This is true in particular of the opener, "St. Felix Street," and the bookend closer, "Nation Time." Other tracks, such as the humorous "The Dozens Song," the driving "I Don't Care" (with a generous touch of the lyric influence and hipster vocal phrasing of Ben Sidran), and "Mellow Yellow" (not the Donovan tune), offer a street-conscious aspect of the band's performance, while keeping the production on the slick side, featuring the infectious Fender Rhodes and keyboards laid down by Hubert Eaves, the razor-sharp guitar work of Hector Centeno, the cracking breaks of drummer Howard King, the tough in-the-pocket hand percussion of Kenneth Nash, and the punched-up accents of bassists James Benjamin and Maynard Parker. Bartz chose to handle the vocals on this set, and his off-key vocals did hurt him on both the title cut and "Lady Love" (these would have been stone killers sung by Bey or any more skilled singer), because their subtleties demand a more accurate pitch. That said, the music more than compensates, and Bartz's own alto, soprano, and clarinet chops are in top shape. This is a curious record, an experiment (and partnership with Mizell) that would take shape further on 1975's The Shadow Do! and culminate in the excellent Music Is My Sanctuary in 1977.
Приватный:
Нет (DHT включён)
Размер:
252.47 Мб (264,736,381 байт) » файлов: 18
Участники:
0 раздают, 1 качают (1 участников всего)
Внешние участники:
3 раздают, 1 качают (4 участников всего) [ Обновить ]
Скорость:
16.05 Кб/c 0/c
For power users only: no seeders - write to support@pro-jazz.com. Для power user: нет сидеров - пишите на support@pro-jazz.com.
11:07
104
Нет комментариев. Ваш будет первым!