Поиск

(Jazz-Funk) [CD] Roy Porter Sound Machine '94 - Generation - 1994 (2014 Japan Edition), FLAC (tracks+.cue), lossless

(Jazz-Funk) [CD] Roy Porter Sound Machine '94 - Generation - 1994 (2014 Japan Edition), FLAC (tracks+.cue), lossless
Треклист:
Roy Porter Sound Machine '94 - Generation
Жанр: Jazz-Funk
Носитель: CD
Страна-производитель диска (релиза): Япония
Год издания: 1994 (2014)
Издатель (лейбл): P-Vine Records
Номер по каталогу: PCD-24366
Страна исполнителя (группы): США
Аудиокодек: FLAC (*.flac)
Тип рипа: tracks+.cue
Битрейт аудио: lossless
Продолжительность: 49:14
Источник (релизер): stoichie (what)
Наличие сканов в содержимом раздачи: нет
Треклист:
01. Generation (Porter-Clayton-Anderson-Randle-Shivers) - 3:02
02. Mr. R.P. & Me (vocal) (Fulks-Houston) - 5:10
03. Jessica (Porter) - 6:57
04. Dopetivity (Porter) - 5:17
05. Slaughterhouse (vocal) (Porter) - 3:42
06. Wave (Jobim) - 7:04
07. Mysticali Fix (Porter-Houston) - 5:20
08. Mr. R.P. & Me (instrumental) (Fulks) - 5:15
09. Slaughterhouse (instrumental) (Porter) - 3:59
10. Roy's Blues (Porter) - 3:28
Состав:
Houston Blue, Ded To The World, "Big Born" - vocals
Chet Christopher - saxophone
James Smith - trumpet
Jack Fulks - flute
Bob Davis - keyboards
Phil Raney - solo bass
Roy Porter - drums, percussion, piano
 
Лог создания рипа
Exact Audio Copy V1.0 beta 6 from 9. April 2015
EAC extraction logfile from 15. November 2015, 10:29
Roy Porter Sound Machine '94 / Generation
Used drive : MATSHITADVD+-RW UJ8FB Adapter: 1 ID: 0
Read mode : Secure
Utilize accurate stream : Yes
Defeat audio cache : Yes
Make use of C2 pointers : No
Read offset correction : 6
Overread into Lead-In and Lead-Out : No
Fill up missing offset samples with silence : Yes
Delete leading and trailing silent blocks : No
Null samples used in CRC calculations : Yes
Used interface : Native Win32 interface for Win NT & 2000
Gap handling : Appended to previous track
Used output format : User Defined Encoder
Selected bitrate : 1024 kBit/s
Quality : High
Add ID3 tag : No
Command line compressor : C:\Program Files\Flac\flac.exe
Additional command line options : -8 -V -T "ARTIST=%artist%" -T "TITLE=%title%" -T "ALBUM=%albumtitle%" -T "DATE=%year%" -T "TRACKNUMBER=%tracknr%" -T "GENRE=%genre%" -T "PERFORMER=%albuminterpret%" -T "COMPOSER=%composer%" %haslyrics%--tag-from-file=LYRICS="%lyricsfile%"%haslyrics% -T "ALBUMARTIST=%albumartist%" -T "DISCNUMBER=%cdnumber%" -T "TOTALDISCS=%totalcds%" -T "TOTALTRACKS=%numtracks%" -T "COMMENT=%comment%" %source% -o %dest%
TOC of the extracted CD
Track | Start | Length | Start sector | End sector
---------------------------------------------------------
1 | 0:00.00 | 3:02.00 | 0 | 13649
2 | 3:02.00 | 5:09.55 | 13650 | 36879
3 | 8:11.55 | 6:57.23 | 36880 | 68177
4 | 15:09.03 | 5:16.58 | 68178 | 91935
5 | 20:25.61 | 3:41.58 | 91936 | 108568
6 | 24:07.44 | 7:04.35 | 108569 | 140403
7 | 31:12.04 | 5:19.69 | 140404 | 164397
8 | 36:31.73 | 5:15.03 | 164398 | 188025
9 | 41:47.01 | 3:58.60 | 188026 | 205935
10 | 45:45.61 | 3:28.04 | 205936 | 221539
Track 1
Filename C:\EAC Rips\Roy Porter Sound Machine '94 - Generation (1994)\01 - Generation.wav
Pre-gap length 0:00:02.00
Peak level 99.4 %
Extraction speed 2.5 X
Track quality 100.0 %
Test CRC B777E16A
Copy CRC B777E16A
Accurately ripped (confidence 1) [5A369CA8] (AR v2)
Copy OK
Track 2
Filename C:\EAC Rips\Roy Porter Sound Machine '94 - Generation (1994)\02 - Mr. R. P. & Me (Vocal).wav
Pre-gap length 0:00:01.92
Peak level 99.4 %
Extraction speed 2.6 X
Track quality 99.9 %
Test CRC 9BA31945
Copy CRC 9BA31945
Accurately ripped (confidence 1) [FF1E705C] (AR v2)
Copy OK
Track 3
Filename C:\EAC Rips\Roy Porter Sound Machine '94 - Generation (1994)\03 - Jessica.wav
Pre-gap length 0:00:01.93
Peak level 99.4 %
Extraction speed 3.1 X
Track quality 99.9 %
Test CRC BAE40FEA
Copy CRC BAE40FEA
Accurately ripped (confidence 1) [FD32835D] (AR v2)
Copy OK
Track 4
Filename C:\EAC Rips\Roy Porter Sound Machine '94 - Generation (1994)\04 - Dopetivity (Instr.).wav
Pre-gap length 0:00:02.04
Peak level 99.4 %
Extraction speed 3.7 X
Track quality 100.0 %
Test CRC 7ACBB9E9
Copy CRC 7ACBB9E9
Accurately ripped (confidence 1) [B032A41C] (AR v2)
Copy OK
Track 5
Filename C:\EAC Rips\Roy Porter Sound Machine '94 - Generation (1994)\05 - Slaughterhouse.wav
Pre-gap length 0:00:02.00
Peak level 99.4 %
Extraction speed 3.1 X
Track quality 99.9 %
Test CRC 95DE3F4A
Copy CRC 95DE3F4A
Accurately ripped (confidence 1) [15FFA5C3] (AR v2)
Copy OK
Track 6
Filename C:\EAC Rips\Roy Porter Sound Machine '94 - Generation (1994)\06 - Wave.wav
Pre-gap length 0:00:02.58
Peak level 99.4 %
Extraction speed 4.3 X
Track quality 100.0 %
Test CRC 8701B6F3
Copy CRC 8701B6F3
Accurately ripped (confidence 1) [CCDFF5B0] (AR v2)
Copy OK
Track 7
Filename C:\EAC Rips\Roy Porter Sound Machine '94 - Generation (1994)\07 - Mystical Fix.wav
Pre-gap length 0:00:01.80
Peak level 99.4 %
Extraction speed 4.5 X
Track quality 100.0 %
Test CRC E73FE8F5
Copy CRC E73FE8F5
Accurately ripped (confidence 1) [7318C183] (AR v2)
Copy OK
Track 8
Filename C:\EAC Rips\Roy Porter Sound Machine '94 - Generation (1994)\08 - Mr. R. P. & Me (Instr.).wav
Pre-gap length 0:00:03.22
Peak level 99.4 %
Extraction speed 4.1 X
Track quality 99.9 %
Test CRC 4D7C4A63
Copy CRC 4D7C4A63
Accurately ripped (confidence 1) [016F4E9A] (AR v2)
Copy OK
Track 9
Filename C:\EAC Rips\Roy Porter Sound Machine '94 - Generation (1994)\09 - Slaughterhouse (Instr.).wav
Pre-gap length 0:00:03.10
Peak level 99.4 %
Extraction speed 4.7 X
Track quality 100.0 %
Test CRC 4691D17D
Copy CRC 4691D17D
Accurately ripped (confidence 1) [E25DDF7D] (AR v2)
Copy OK
Track 10
Filename C:\EAC Rips\Roy Porter Sound Machine '94 - Generation (1994)\10 - Roy's Blues.wav
Pre-gap length 0:00:02.73
Peak level 99.4 %
Extraction speed 4.7 X
Track quality 100.0 %
Test CRC 0AA95719
Copy CRC 0AA95719
Accurately ripped (confidence 1) [70D8983E] (AR v2)
Copy OK
All tracks accurately ripped
No errors occurred
End of status report
---- CUETools DB Plugin V2.1.6
[CTDB TOCID: AS12YbDWXOMVRSDDMec0JMOWdUc-] disk not present in database
Submit result: AS12YbDWXOMVRSDDMec0JMOWdUc- has been uploaded
==== Log checksum 0D08C47613AEFEA046A3D6F97E60265AA50D242F19E3C8D7705E1F3F6CE6C70E ====
 
Содержание индексной карты (.CUE)
REM GENRE Jazz
REM DATE 1994
REM DISCID 8F0B890A
REM COMMENT "ExactAudioCopy v1.0b6"
PERFORMER "Roy Porter Sound Machine '94"
TITLE "Generation"
FILE "01 - Generation.wav" WAVE
TRACK 01 AUDIO
TITLE "Generation"
PERFORMER "Roy Porter Sound Machine '94"
INDEX 01 00:00:00
TRACK 02 AUDIO
TITLE "Mr. R.P. & Me (vocal)"
PERFORMER "Roy Porter Sound Machine '94"
INDEX 00 03:00:06
FILE "02 - Mr. R.P. & Me (vocal).wav" WAVE
INDEX 01 00:00:00
TRACK 03 AUDIO
TITLE "Jessica"
PERFORMER "Roy Porter Sound Machine '94"
INDEX 00 05:07:60
FILE "03 - Jessica.wav" WAVE
INDEX 01 00:00:00
TRACK 04 AUDIO
TITLE "Dopetivity"
PERFORMER "Roy Porter Sound Machine '94"
INDEX 00 06:55:20
FILE "04 - Dopetivity.wav" WAVE
INDEX 01 00:00:00
TRACK 05 AUDIO
TITLE "Slaughterhouse (vocal)"
PERFORMER "Roy Porter Sound Machine '94"
INDEX 00 05:14:58
FILE "05 - Slaughterhouse (vocal).wav" WAVE
INDEX 01 00:00:00
TRACK 06 AUDIO
TITLE "Wave"
PERFORMER "Roy Porter Sound Machine '94"
INDEX 00 03:39:14
FILE "06 - Wave.wav" WAVE
INDEX 01 00:00:00
TRACK 07 AUDIO
TITLE "Mysticali Fix"
PERFORMER "Roy Porter Sound Machine '94"
INDEX 00 07:02:50
FILE "07 - Mysticali Fix.wav" WAVE
INDEX 01 00:00:00
TRACK 08 AUDIO
TITLE "Mr. R.P. & Me (instrumental)"
PERFORMER "Roy Porter Sound Machine '94"
INDEX 00 05:16:52
FILE "08 - Mr. R.P. & Me (instrumental).wav" WAVE
INDEX 01 00:00:00
TRACK 09 AUDIO
TITLE "Slaughterhouse (instrumental)"
PERFORMER "Roy Porter Sound Machine '94"
INDEX 00 05:11:70
FILE "09 - Slaughterhouse (instrumental).wav" WAVE
INDEX 01 00:00:00
TRACK 10 AUDIO
TITLE "Roy's Blues"
PERFORMER "Roy Porter Sound Machine '94"
INDEX 00 03:56:05
FILE "10 - Roy's Blues.wav" WAVE
INDEX 01 00:00:00
 
Отчет CUETools
[CUETools log; Date: 17.11.2015 0:31:41; Version: 2.1.5]
[CTDB TOCID: AS12YbDWXOMVRSDDMec0JMOWdUc-] found.
Track | CTDB Status
1 | (1/1) Accurately ripped
2 | (1/1) Accurately ripped
3 | (1/1) Accurately ripped
4 | (1/1) Accurately ripped
5 | (1/1) Accurately ripped
6 | (1/1) Accurately ripped
7 | (1/1) Accurately ripped
8 | (1/1) Accurately ripped
9 | (1/1) Accurately ripped
10 | (1/1) Accurately ripped
[AccurateRip ID: 0012e9dd-0098b6e5-8f0b890a] found.
Track [ CRC | V2 ] Status
01 [07807d83|5a369ca8] (0+1/1) Accurately ripped
02 [92b000b5|ff1e705c] (0+1/1) Accurately ripped
03 [2d796a0c|fd32835d] (0+1/1) Accurately ripped
04 [216d6a99|b032a41c] (0+1/1) Accurately ripped
05 [8864b922|15ffa5c3] (0+1/1) Accurately ripped
06 [27f11c6b|ccdff5b0] (0+1/1) Accurately ripped
07 [dc2ed555|7318c183] (0+1/1) Accurately ripped
08 [8541a1c3|016f4e9a] (0+1/1) Accurately ripped
09 [c527081f|e25ddf7d] (0+1/1) Accurately ripped
10 [c0f81cd5|70d8983e] (0+1/1) Accurately ripped
Track Peak [ CRC32 ] [W/O NULL] [ LOG ]
-- 99,4 [3BCA9FFE] [D9231F39]
01 99,4 [B777E16A] [E5677656] CRC32
02 99,4 [9BA31945] [1BA8EADD] CRC32
03 99,4 [BAE40FEA] [922C23F6] CRC32
04 99,4 [7ACBB9E9] [0B90C596] CRC32
05 99,4 [95DE3F4A] [06AC52AC] CRC32
06 99,4 [8701B6F3] [03124CD2] CRC32
07 99,4 [E73FE8F5] [D4F88194] CRC32
08 99,4 [4D7C4A63] [174D8E82] CRC32
09 99,4 [4691D17D] [C2298445] CRC32
10 99,4 [0AA95719] [C19B2760] CRC32
 
Об альбоме (сборнике)
Legendary drummer Roy Porter released his first two albums ("Jessica" and "Inner Feelings") in the early to mid 1970s. Although he retired from performing in 1978 on health grounds, he continued to give workshops and ran his publishing company. In 1994 he released his final album titled Roy Porter Sound Machine '94 - Generation at the age of 71. Guest musicians include not only original members of the Sound Machine but also the two rappers Ded to the World and Big Born as well as Houston Blue. This album combines organic jazz-funk grooves with Hip Hop beats and rhymes from the 1990s in perfection. Real DJs who still spin vinyl will be pleased with the loud pressing and proper mastering.
Приватный:
Нет (DHT включён)
Размер:
310.04 Мб (325,100,636 байт) » файлов: 17
Участники:
0 раздают, 0 качают (0 участников всего)
Внешние участники:
1 раздают, 0 качают (1 участников всего) [ Обновить ]
Есть вопросы - пишите личное сообщение пользователю M0p94ok.
08:48
51
Нет комментариев. Ваш будет первым!