Поиск

(Jazz-Funk) [CD] Larry Ridley - Sum of the Parts - 1975 (1992), FLAC (tracks+.cue), lossless

(Jazz-Funk) [CD] Larry Ridley - Sum of the Parts - 1975 (1992), FLAC (tracks+.cue), lossless
Треклист:
Larry Ridley - Sum of the Parts
Жанр: Jazz-Funk
Носитель: CD
Страна-производитель диска (релиза): Германия
Год издания: 1992
Издатель (лейбл): Bellaphon
Номер по каталогу: 660-51-013
Страна исполнителя (группы): США
Аудиокодек: FLAC (*.flac)
Тип рипа: tracks+.cue
Битрейт аудио: lossless
Продолжительность: 41:58
Источник (релизер): crawshay
Наличие сканов в содержимом раздачи: нет
Треклист:
01. Changa Chikuyo (Cultured Man of Iron) (Gumbs) - 4:08
02. It Was a Very Good Year (Drake) - 5:43
03. Well You Needn't (Monk) - 8:30
04. Go Down Moses (Trad.) - 1:22
05. Feelin' Blue (Altmann) - 6:02
06. Indiana Avenue (Ridley) - 5:59
07. In a Sentimental Mood (Ellington) - 2:21
08. Never Can Say Goodbye (Davis) - 7:53
Состав:
Larry Ridley - acoustic bass, electric bass
Sonny Fortune - flute (#1), alto saxophone (#3,6), soprano saxophone (#5,8)
Cornell Dupree - guitar (#1,3,6,8)
Onaje Allan Gumbs - acoustic piano, electric piano, clavinet, string synthesizer
Grady Tate - drums
Errol "Crusher" Bennett - congas, percussion
Recorded at Generation Sound Studios, New York on June 9-30, 1975.
 
Лог создания рипа
X Lossless Decoder version 20170729 (150.3)
XLD extraction logfile from 2018-01-15 09:55:59 -0800
Larry Ridley / Sum Of The Parts
Used drive : HL-DT-ST DVDRW GS23N (revision SB07)
Media type : Pressed CD
Ripper mode : XLD Secure Ripper
Disable audio cache : OK for the drive with a cache less than 1375KiB
Make use of C2 pointers : NO
Read offset correction : 667
Max retry count : 25
Gap status : Analyzed, Appended (except HTOA)
TOC of the extracted CD
Track | Start | Length | Start sector | End sector
---------------------------------------------------------
1 | 00:00:00 | 04:07:65 | 0 | 18589
2 | 04:07:65 | 05:42:45 | 18590 | 44284
3 | 09:50:35 | 08:29:67 | 44285 | 82526
4 | 18:20:27 | 01:22:10 | 82527 | 88686
5 | 19:42:37 | 06:01:43 | 88687 | 115804
6 | 25:44:05 | 05:58:60 | 115805 | 142714
7 | 31:42:65 | 02:21:12 | 142715 | 153301
8 | 34:04:02 | 07:53:23 | 153302 | 188799
AccurateRip Summary (DiscID: 000cbc97-0054e296-5d09d508)
Track 01 : OK (v1, confidence 1/1)
Track 02 : OK (v1, confidence 1/1)
Track 03 : OK (v1, confidence 1/1)
Track 04 : OK (v1, confidence 1/1)
Track 05 : OK (v1, confidence 1/1)
Track 06 : OK (v1, confidence 1/1)
Track 07 : OK (v1, confidence 1/1)
Track 08 : OK (v1, confidence 1/1)
->All tracks accurately ripped.
All Tracks
Album gain : -2.96 dB
Peak : 0.999054
Statistics
Read error : 0
Jitter error (maybe fixed) : 0
Retry sector count : 0
Damaged sector count : 0
Track 01
Filename : /Volumes/music/Library/Larry Ridley - Sum of the Parts/Larry Ridley - Sum Of The Parts (1975) [FLAC]/01 Changa Chikuyo.flac
Pre-gap length : 00:02:00
Track gain : -3.33 dB
Peak : 0.999054
CRC32 hash (test run) : 9FF924A5
CRC32 hash : 9FF924A5
CRC32 hash (skip zero) : 02A2305C
AccurateRip v1 signature : 7C0A16F4
AccurateRip v2 signature : 67FA5D76
->Accurately ripped (v1, confidence 1/1)
Statistics
Read error : 0
Jitter error (maybe fixed) : 0
Retry sector count : 0
Damaged sector count : 0
Track 02
Filename : /Volumes/music/Library/Larry Ridley - Sum of the Parts/Larry Ridley - Sum Of The Parts (1975) [FLAC]/02 It Was A A Very Good Year.flac
Pre-gap length : 00:03:23
Track gain : -2.20 dB
Peak : 0.999054
CRC32 hash (test run) : A1233DAC
CRC32 hash : A1233DAC
CRC32 hash (skip zero) : FF7B937B
AccurateRip v1 signature : 0804ED28
AccurateRip v2 signature : A0A5AF9C
->Accurately ripped (v1, confidence 1/1)
Statistics
Read error : 0
Jitter error (maybe fixed) : 0
Retry sector count : 0
Damaged sector count : 0
Track 03
Filename : /Volumes/music/Library/Larry Ridley - Sum of the Parts/Larry Ridley - Sum Of The Parts (1975) [FLAC]/03 Well You Needn't.flac
Pre-gap length : 00:03:15
Track gain : -3.28 dB
Peak : 0.999054
CRC32 hash (test run) : 71044A9E
CRC32 hash : 71044A9E
CRC32 hash (skip zero) : E9EE5FE6
AccurateRip v1 signature : 653B762F
AccurateRip v2 signature : C360ABE7
->Accurately ripped (v1, confidence 1/1)
Statistics
Read error : 0
Jitter error (maybe fixed) : 0
Retry sector count : 0
Damaged sector count : 0
Track 04
Filename : /Volumes/music/Library/Larry Ridley - Sum of the Parts/Larry Ridley - Sum Of The Parts (1975) [FLAC]/04 Go Down Moses.flac
Pre-gap length : 00:03:52
Track gain : 1.09 dB
Peak : 0.649200
CRC32 hash (test run) : 3D9B99E1
CRC32 hash : 3D9B99E1
CRC32 hash (skip zero) : F686FD48
AccurateRip v1 signature : A8BB9B48
AccurateRip v2 signature : A58729E3
->Accurately ripped (v1, confidence 1/1)
Statistics
Read error : 0
Jitter error (maybe fixed) : 0
Retry sector count : 0
Damaged sector count : 0
Track 05
Filename : /Volumes/music/Library/Larry Ridley - Sum of the Parts/Larry Ridley - Sum Of The Parts (1975) [FLAC]/05 Feelin' Blue.flac
Pre-gap length : 00:02:70
Track gain : -2.80 dB
Peak : 0.966248
CRC32 hash (test run) : D85762CF
CRC32 hash : D85762CF
CRC32 hash (skip zero) : 371C545D
AccurateRip v1 signature : 6EF34D92
AccurateRip v2 signature : DA9802B0
->Accurately ripped (v1, confidence 1/1)
Statistics
Read error : 0
Jitter error (maybe fixed) : 0
Retry sector count : 0
Damaged sector count : 0
Track 06
Filename : /Volumes/music/Library/Larry Ridley - Sum of the Parts/Larry Ridley - Sum Of The Parts (1975) [FLAC]/06 Indiana Avenue.flac
Pre-gap length : 00:03:33
Track gain : -3.30 dB
Peak : 0.966248
CRC32 hash (test run) : CC9FC65E
CRC32 hash : CC9FC65E
CRC32 hash (skip zero) : B803087D
AccurateRip v1 signature : 4C5BB51F
AccurateRip v2 signature : F522F8B9
->Accurately ripped (v1, confidence 1/1)
Statistics
Read error : 0
Jitter error (maybe fixed) : 0
Retry sector count : 0
Damaged sector count : 0
Track 07
Filename : /Volumes/music/Library/Larry Ridley - Sum of the Parts/Larry Ridley - Sum Of The Parts (1975) [FLAC]/07 In A Sentimental Mood.flac
Pre-gap length : 00:03:60
Track gain : 4.74 dB
Peak : 0.729156
CRC32 hash (test run) : 3C072703
CRC32 hash : 3C072703
CRC32 hash (skip zero) : 02DCB663
AccurateRip v1 signature : 5BB9A080
AccurateRip v2 signature : B4AE87CE
->Accurately ripped (v1, confidence 1/1)
Statistics
Read error : 0
Jitter error (maybe fixed) : 0
Retry sector count : 0
Damaged sector count : 0
Track 08
Filename : /Volumes/music/Library/Larry Ridley - Sum of the Parts/Larry Ridley - Sum Of The Parts (1975) [FLAC]/08 Never Can Say Goodbye.flac
Pre-gap length : 00:03:22
Track gain : -3.12 dB
Peak : 0.966248
CRC32 hash (test run) : 125C9F03
CRC32 hash : 125C9F03
CRC32 hash (skip zero) : 0B310683
AccurateRip v1 signature : 9812A18D
AccurateRip v2 signature : 07892E28
->Accurately ripped (v1, confidence 1/1)
Statistics
Read error : 0
Jitter error (maybe fixed) : 0
Retry sector count : 0
Damaged sector count : 0
No errors occurred
End of status report
-----BEGIN XLD SIGNATURE-----
wTA3gp2je0CZnmFdlzW65xr8yaQtCPf9A21xRbTKcymsD3CwJVuFfE_RScWSAmFh0XYSqd4hg8tThya89PBp2qExTMhSe1LpuNuyR0O
-----END XLD SIGNATURE-----
 
Содержание индексной карты (.CUE)
TITLE "Sum of the Parts"
PERFORMER "Larry Ridley"
REM GENRE "Jazz"
REM DATE "1975"
REM DISCID 5D09D508
REM REPLAYGAIN_ALBUM_GAIN -2.96 dB
REM REPLAYGAIN_ALBUM_PEAK 0.999054
FILE "01 - Changa Chikuyo.flac" WAVE
TRACK 01 AUDIO
TITLE "Changa Chikuyo"
REM REPLAYGAIN_TRACK_GAIN -3.33 dB
REM REPLAYGAIN_TRACK_PEAK 0.999054
INDEX 01 00:00:00
TRACK 02 AUDIO
TITLE "It Was a Very Good Year"
REM REPLAYGAIN_TRACK_GAIN -2.20 dB
REM REPLAYGAIN_TRACK_PEAK 0.999054
INDEX 00 04:04:42
FILE "02 - It Was a Very Good Year.flac" WAVE
INDEX 01 00:00:00
TRACK 03 AUDIO
TITLE "Well You Needn't"
REM REPLAYGAIN_TRACK_GAIN -3.28 dB
REM REPLAYGAIN_TRACK_PEAK 0.999054
INDEX 00 05:39:30
FILE "03 - Well You Needn't.flac" WAVE
INDEX 01 00:00:00
TRACK 04 AUDIO
TITLE "Go Down Moses"
REM REPLAYGAIN_TRACK_GAIN 1.09 dB
REM REPLAYGAIN_TRACK_PEAK 0.649200
INDEX 00 08:26:15
FILE "04 - Go Down Moses.flac" WAVE
INDEX 01 00:00:00
TRACK 05 AUDIO
TITLE "Feelin' Blue"
REM REPLAYGAIN_TRACK_GAIN -2.80 dB
REM REPLAYGAIN_TRACK_PEAK 0.966248
INDEX 00 01:19:15
FILE "05 - Feelin' Blue.flac" WAVE
INDEX 01 00:00:00
TRACK 06 AUDIO
TITLE "Indiana Avenue"
REM REPLAYGAIN_TRACK_GAIN -3.30 dB
REM REPLAYGAIN_TRACK_PEAK 0.966248
INDEX 00 05:58:10
FILE "06 - Indiana Avenue.flac" WAVE
INDEX 01 00:00:00
TRACK 07 AUDIO
TITLE "In a Sentimental Mood"
REM REPLAYGAIN_TRACK_GAIN 4.74 dB
REM REPLAYGAIN_TRACK_PEAK 0.729156
INDEX 00 05:55:00
FILE "07 - In a Sentimental Mood.flac" WAVE
INDEX 01 00:00:00
TRACK 08 AUDIO
TITLE "Never Can Say Goodbye"
REM REPLAYGAIN_TRACK_GAIN -3.12 dB
REM REPLAYGAIN_TRACK_PEAK 0.966248
INDEX 00 02:17:65
FILE "08 - Never Can Say Goodbye.flac" WAVE
INDEX 01 00:00:00
 
Об альбоме (сборнике)
A rare outing as bandleader for the talented session bassist who has worked with the likes of Jackie McLean, Lee Morgan and Freddie Hubbard. Originally released on Strata-East, one of the most consistently high-quality jazz labels of the 70's. "Sum of the Parts" ventures a little further into the realms of fusion and smooth jazz then most Strata-East titles, but the level of musicianship remains high throughout, thanks to a strong lineup that includes the unsung Sonny Fortune on sax and Grady Tate on drums. Solid.
-- Travis Altman
Приватный:
Нет (DHT включён)
Размер:
265.91 Мб (278,828,811 байт) » файлов: 13
Участники:
0 раздают, 0 качают (0 участников всего)
Внешние участники:
2 раздают, 1 качают (3 участников всего) [ Обновить ]
Есть вопросы - пишите личное сообщение пользователю M0p94ok.
15:40
53
Нет комментариев. Ваш будет первым!