Поиск

(Jazz-Funk) [CD] Electro Deluxe - Circle - 2016, FLAC (tracks+.cue), lossless

(Jazz-Funk) [CD] Electro Deluxe - Circle - 2016, FLAC (tracks+.cue), lossless
Треклист:
Electro Deluxe - Circle
Жанр: Jazz-Funk
Носитель: CD
Страна-производитель диска (релиза): Франция
Год издания: 2016
Издатель (лейбл): Stardown
Номер по каталогу: M6257
Аудиокодек: FLAC (*.flac)
Тип рипа: tracks+.cue
Битрейт аудио: lossless
Продолжительность: 65:44
Источник (релизер): passtheheadphones
Наличие сканов в содержимом раздачи: нет
Треклист:
01. All Alone (03:57)
02. Keep My Baby Dancing (06:39)
03. K.O. (04:31)
04. Liar (04:31)
05. Paramount (05:00)
06. Oh No (04:08)
07. Circle of Life (04:48)
08. Bad Boys on the Run (04:02)
09. Cut All Ties (04:48)
10. Majestic (04:54)
11. Eye for an Eye (04:47)
12. Through My Veins (04:13)
13. FNK LVE (04:47)
14. Heaven Can Wait (04:39)
Состав:
Gael Cadoux - keyboards
Thomas Faure - saxophone
Jeremie Coke - electric bass
James Copley - vocals
Arnaud Renaville - drums
Vincent Payen - trumpet
Bertrand Luzignant - trombone
 
Лог создания рипа
Exact Audio Copy V1.0 beta 3 from 29. August 2011
EAC extraction logfile from 10. January 2017, 13:07
Electro Deluxe / Circle
Used drive : TSSTcorpCDDVDW SE-218CB Adapter: 1 ID: 0
Read mode : Secure
Utilize accurate stream : Yes
Defeat audio cache : Yes
Make use of C2 pointers : No
Read offset correction : 6
Overread into Lead-In and Lead-Out : No
Fill up missing offset samples with silence : Yes
Delete leading and trailing silent blocks : No
Null samples used in CRC calculations : Yes
Used interface : Native Win32 interface for Win NT & 2000
Gap handling : Appended to previous track
Used output format : User Defined Encoder
Selected bitrate : 1024 kBit/s
Quality : High
Add ID3 tag : No
Command line compressor : C:\Program Files (x86)\Exact Audio Copy\Flac\flac.exe
Additional command line options : -8 -V -T "ARTIST=%artist%" -T "TITLE=%title%" -T "ALBUM=%albumtitle%" -T "DATE=%year%" -T "TRACKNUMBER=%tracknr%" -T "GENRE=%genre%" -T "PERFORMER=%albuminterpret%" -T "COMPOSER=%composer%" %haslyrics%--tag-from-file=LYRICS="%lyricsfile%"%haslyrics% -T "ALBUMARTIST=%albumartist%" -T "DISCNUMBER=%cdnumber%" -T "TOTALDISCS=%totalcds%" -T "TOTALTRACKS=%numtracks%" -T "COMMENT=%comment%" %source% -o %dest%
TOC of the extracted CD
Track | Start | Length | Start sector | End sector
---------------------------------------------------------
1 | 0:00.00 | 3:57.25 | 0 | 17799
2 | 3:57.25 | 6:39.26 | 17800 | 47750
3 | 10:36.51 | 4:30.53 | 47751 | 68053
4 | 15:07.29 | 4:31.04 | 68054 | 88382
5 | 19:38.33 | 5:00.24 | 88383 | 110906
6 | 24:38.57 | 4:08.12 | 110907 | 129518
7 | 28:46.69 | 4:47.38 | 129519 | 151081
8 | 33:34.32 | 4:02.30 | 151082 | 169261
9 | 37:36.62 | 4:47.47 | 169262 | 190833
10 | 42:24.34 | 4:54.05 | 190834 | 212888
11 | 47:18.39 | 4:46.61 | 212889 | 234399
12 | 52:05.25 | 4:12.69 | 234400 | 253368
13 | 56:18.19 | 4:47.24 | 253369 | 274917
14 | 61:05.43 | 4:39.32 | 274918 | 295874
Track 1
Filename C:\EAC\Electro Deluxe - Circle - 2016 - FLAC - CD\01. All Alone.wav
Pre-gap length 0:00:02.00
Peak level 98.8 %
Extraction speed 2.3 X
Track quality 100.0 %
Test CRC E443270E
Copy CRC E443270E
Accurately ripped (confidence 1) [03C8D617] (AR v2)
Copy OK
Track 2
Filename C:\EAC\Electro Deluxe - Circle - 2016 - FLAC - CD\02. Keep my Baby Dancing.wav
Peak level 98.8 %
Extraction speed 2.4 X
Track quality 99.9 %
Test CRC 1AAC4DAC
Copy CRC 1AAC4DAC
Accurately ripped (confidence 1) [62E21ED7] (AR v2)
Copy OK
Track 3
Filename C:\EAC\Electro Deluxe - Circle - 2016 - FLAC - CD\03. K.O..wav
Peak level 98.8 %
Extraction speed 2.9 X
Track quality 100.0 %
Test CRC 5DF854D8
Copy CRC 5DF854D8
Accurately ripped (confidence 1) [909F2703] (AR v2)
Copy OK
Track 4
Filename C:\EAC\Electro Deluxe - Circle - 2016 - FLAC - CD\04. Liar.wav
Peak level 98.8 %
Extraction speed 3.1 X
Track quality 100.0 %
Test CRC A522B707
Copy CRC A522B707
Accurately ripped (confidence 1) [C057202E] (AR v2)
Copy OK
Track 5
Filename C:\EAC\Electro Deluxe - Circle - 2016 - FLAC - CD\05. Paramount.wav
Peak level 99.2 %
Extraction speed 3.3 X
Track quality 100.0 %
Test CRC 697187C0
Copy CRC 697187C0
Accurately ripped (confidence 1) [BFF28341] (AR v2)
Copy OK
Track 6
Filename C:\EAC\Electro Deluxe - Circle - 2016 - FLAC - CD\06. Oh No.wav
Peak level 98.8 %
Extraction speed 3.4 X
Track quality 100.0 %
Test CRC 309061D9
Copy CRC 309061D9
Accurately ripped (confidence 1) [F85C7D58] (AR v2)
Copy OK
Track 7
Filename C:\EAC\Electro Deluxe - Circle - 2016 - FLAC - CD\07. Circle of Life.wav
Peak level 98.8 %
Extraction speed 3.0 X
Track quality 99.9 %
Test CRC D5819365
Copy CRC D5819365
Accurately ripped (confidence 1) [AE2EE069] (AR v2)
Copy OK
Track 8
Filename C:\EAC\Electro Deluxe - Circle - 2016 - FLAC - CD\08. Bad Boys on the Run.wav
Peak level 99.2 %
Extraction speed 3.7 X
Track quality 100.0 %
Test CRC 9E7EF31E
Copy CRC 9E7EF31E
Accurately ripped (confidence 1) [610FFAB0] (AR v2)
Copy OK
Track 9
Filename C:\EAC\Electro Deluxe - Circle - 2016 - FLAC - CD\09. Cut All Ties.wav
Peak level 98.8 %
Extraction speed 3.9 X
Track quality 100.0 %
Test CRC E2109F2C
Copy CRC E2109F2C
Accurately ripped (confidence 1) [18DD879A] (AR v2)
Copy OK
Track 10
Filename C:\EAC\Electro Deluxe - Circle - 2016 - FLAC - CD\10. Majestic.wav
Peak level 99.2 %
Extraction speed 4.1 X
Track quality 100.0 %
Test CRC 4F5719CF
Copy CRC 4F5719CF
Accurately ripped (confidence 1) [39FBB533] (AR v2)
Copy OK
Track 11
Filename C:\EAC\Electro Deluxe - Circle - 2016 - FLAC - CD\11. Eye for an Eye.wav
Peak level 99.2 %
Extraction speed 3.5 X
Track quality 99.9 %
Test CRC 28441C5E
Copy CRC 28441C5E
Accurately ripped (confidence 1) [A2059C1D] (AR v2)
Copy OK
Track 12
Filename C:\EAC\Electro Deluxe - Circle - 2016 - FLAC - CD\12. Through my Veins.wav
Peak level 99.2 %
Extraction speed 4.2 X
Track quality 100.0 %
Test CRC 02DA2E78
Copy CRC 02DA2E78
Accurately ripped (confidence 1) [FDE65201] (AR v2)
Copy OK
Track 13
Filename C:\EAC\Electro Deluxe - Circle - 2016 - FLAC - CD\13. FNK LVE.wav
Peak level 99.2 %
Extraction speed 4.5 X
Track quality 100.0 %
Test CRC 04783C6D
Copy CRC 04783C6D
Accurately ripped (confidence 1) [AB435ECE] (AR v2)
Copy OK
Track 14
Filename C:\EAC\Electro Deluxe - Circle - 2016 - FLAC - CD\14. Heaven can Wait.wav
Peak level 98.8 %
Extraction speed 4.6 X
Track quality 100.0 %
Test CRC F1DA81AC
Copy CRC F1DA81AC
Accurately ripped (confidence 1) [4209A5F9] (AR v2)
Copy OK
All tracks accurately ripped
No errors occurred
End of status report
==== Log checksum 4B260EF3113B791A30FD4481CFBBFC4260EF40CCFEFD082464D1D575954062C3 ====
 
Содержание индексной карты (.CUE)
REM GENRE Funk
REM DATE 2016
REM DISCID C60F690E
REM COMMENT "ExactAudioCopy v1.0b3"
PERFORMER "Electro Deluxe"
TITLE "Circle"
FILE "01 - All Alone.wav" WAVE
TRACK 01 AUDIO
TITLE "All Alone"
PERFORMER "Electro Deluxe"
ISRC FR0U91600899
INDEX 01 00:00:00
FILE "02 - Keep My Baby Dancing.wav" WAVE
TRACK 02 AUDIO
TITLE "Keep My Baby Dancing"
PERFORMER "Electro Deluxe"
ISRC FR0U91601006
INDEX 01 00:00:00
FILE "03 - K.O..wav" WAVE
TRACK 03 AUDIO
TITLE "K.O."
PERFORMER "Electro Deluxe"
ISRC FR0U91601007
INDEX 01 00:00:00
FILE "04 - Liar.wav" WAVE
TRACK 04 AUDIO
TITLE "Liar"
PERFORMER "Electro Deluxe"
ISRC FR0U91601008
INDEX 01 00:00:00
FILE "05 - Paramount.wav" WAVE
TRACK 05 AUDIO
TITLE "Paramount"
PERFORMER "Electro Deluxe"
ISRC FR0U91601009
INDEX 01 00:00:00
FILE "06 - Oh No.wav" WAVE
TRACK 06 AUDIO
TITLE "Oh No"
PERFORMER "Electro Deluxe"
ISRC FR0U91601010
INDEX 01 00:00:00
FILE "07 - Circle of Life.wav" WAVE
TRACK 07 AUDIO
TITLE "Circle of Life"
PERFORMER "Electro Deluxe"
ISRC FR0U91601011
INDEX 01 00:00:00
FILE "08 - Bad Boys on the Run.wav" WAVE
TRACK 08 AUDIO
TITLE "Bad Boys on the Run"
PERFORMER "Electro Deluxe"
ISRC FR0U91601012
INDEX 01 00:00:00
FILE "09 - Cut All Ties.wav" WAVE
TRACK 09 AUDIO
TITLE "Cut All Ties"
PERFORMER "Electro Deluxe"
ISRC FR0U91601013
INDEX 01 00:00:00
FILE "10 - Majestic.wav" WAVE
TRACK 10 AUDIO
TITLE "Majestic"
PERFORMER "Electro Deluxe"
ISRC FR0U91601014
INDEX 01 00:00:00
FILE "11 - Eye for an Eye.wav" WAVE
TRACK 11 AUDIO
TITLE "Eye for an Eye"
PERFORMER "Electro Deluxe"
ISRC FR0U91601015
INDEX 01 00:00:00
FILE "12 - Through My Veins.wav" WAVE
TRACK 12 AUDIO
TITLE "Through My Veins"
PERFORMER "Electro Deluxe"
ISRC FR0U91601016
INDEX 01 00:00:00
FILE "13 - FNK LVE.wav" WAVE
TRACK 13 AUDIO
TITLE "FNK LVE"
PERFORMER "Electro Deluxe"
ISRC FR0U91601017
INDEX 01 00:00:00
FILE "14 - Heaven Can Wait.wav" WAVE
TRACK 14 AUDIO
TITLE "Heaven Can Wait"
PERFORMER "Electro Deluxe"
ISRC FR0U91601017
INDEX 01 00:00:00
 
Отчет CUETools
[CUETools log; Date: 14.02.2017 2:16:51; Version: 2.1.5]
[CTDB TOCID: 9YD9Gn064Y9Tb08_FsJXgxQhbxE-] found.
Track | CTDB Status
1 | (17/17) Accurately ripped
2 | (17/17) Accurately ripped
3 | (17/17) Accurately ripped
4 | (17/17) Accurately ripped
5 | (17/17) Accurately ripped
6 | (17/17) Accurately ripped
7 | (17/17) Accurately ripped
8 | (17/17) Accurately ripped
9 | (17/17) Accurately ripped
10 | (17/17) Accurately ripped
11 | (17/17) Accurately ripped
12 | (17/17) Accurately ripped
13 | (17/17) Accurately ripped
14 | (16/17) Accurately ripped
[AccurateRip ID: 002241b3-016bc7ff-c60f690e] found.
Track [ CRC | V2 ] Status
01 [8151cb87|03c8d617] (0+1/1) Accurately ripped
02 [66fa0d7d|62e21ed7] (0+1/1) Accurately ripped
03 [9b360004|909f2703] (0+1/1) Accurately ripped
04 [84a1ac7e|c057202e] (0+1/1) Accurately ripped
05 [f86f6f49|bff28341] (0+1/1) Accurately ripped
06 [ef673ccd|f85c7d58] (0+1/1) Accurately ripped
07 [8072e905|ae2ee069] (0+1/1) Accurately ripped
08 [923681e9|610ffab0] (0+1/1) Accurately ripped
09 [57aa3b8f|18dd879a] (0+1/1) Accurately ripped
10 [7596d34f|39fbb533] (0+1/1) Accurately ripped
11 [15585793|a2059c1d] (0+1/1) Accurately ripped
12 [08c91d9f|fde65201] (0+1/1) Accurately ripped
13 [4fc7bc81|ab435ece] (0+1/1) Accurately ripped
14 [50f84c34|4209a5f9] (0+1/1) Accurately ripped
Track Peak [ CRC32 ] [W/O NULL] [ LOG ]
-- 99,2 [C8E9FE1F] [68280DC2]
01 98,8 [E443270E] [B7547A66] CRC32
02 98,8 [1AAC4DAC] [BDD62E48] CRC32
03 98,8 [5DF854D8] [0C37BCC0] CRC32
04 98,8 [A522B707] [65C89E70] CRC32
05 99,2 [697187C0] [3C89A0BD] CRC32
06 98,8 [309061D9] [FD342FEC] CRC32
07 98,8 [D5819365] [E2C9A71E] CRC32
08 99,2 [9E7EF31E] [B2CCF2EE] CRC32
09 98,8 [E2109F2C] [DB9905A8] CRC32
10 99,2 [4F5719CF] [9201EED7] CRC32
11 99,2 [28441C5E] [96695E93] CRC32
12 99,2 [02DA2E78] [44486B62] CRC32
13 99,2 [04783C6D] [86D251EF] CRC32
14 98,8 [F1DA81AC] [DC51BED4] CRC32
 
Об альбоме (сборнике)
Et c’est reparti pour un tour ! De dance floor, peut-être, si l’on en juge par la dimension festive de ce sixième chapitre discographique d’une histoire commencée par Electro Deluxe il y a plus de 15 ans maintenant. Et puis, après tout, le nouveau disque du groupe ayant pour titre Circle, il se propose à coup sûr de faire tourner les têtes. Voilà pour la dimension géométrique d’un album qui, s’il ne constitue pas une surprise artistique au regard de ses prédécesseurs, s’avère tout aussi réjouissant qu’eux.
Un rapide coup d’œil dans le rétroviseur montre à quel point ce combo survolté, qui emporte désormais tout sur son passage, a évolué depuis ses débuts. À l’aube des années 2000, on parlait d’électro-jazz, les références à des légendes telles que Stevie Wonder étaient affichées sans ambiguïté, parfois une incursion vers le hip hop se faisait jour et ancrait le groupe dans les musiques dites urbaines. L’arrivée de l’Américain James Copley a marqué une très nette inflexion vers un répertoire tout aussi black dont les sources sont celles du funk et de la soul music. Avec comme moteur les esprits conjugués de James Brown, Otis Redding ou Marvin Gaye, entre autres parrains. Le chanteur, qui a fait ses armes aux côtés de son père dans les églises baptistes, est charismatique au point que bon nombre de spectateurs assistant à la communion endiablée qu’est aujourd’hui un concert d’Electro Deluxe écarquillent les yeux quand on leur explique que leur idole n’est montée à bord de l’embarcation qu’en cours de route. Et que c’est bien la cellule composée de Gaël Cadoux, Jérémie Coke, Thomas Faure et Arnaud Renaville qui a donné naissance au groupe pour lui forger son identité première et continue d’en véhiculer la fougue originelle. Ajoutez à cette quinte un duo de soufflants complémentaires (Vincent Payen et Bertrand Luzignant) et vous obtiendrez de quoi embraser bien des scènes face à un public qui – c’est impossible de faire autrement – manifeste debout son enthousiasme dès les premières minutes. Parce que si Circle laisse entrevoir de façon très nette ce registre dans lequel évolue désormais Electro Deluxe, il faut dire que c’est avant tout la version live qui permet de comprendre toute l’énergie que peut recevoir un public dont l’adhésion est totale. Celles et ceux qui ont été de la fête comprendront de quoi il retourne et ne manqueront pas d’appeler de leurs vœux autant que possible le « grand » Electro Deluxe, celui qui parfois se produit augmenté d’un big band flamboyant propre à exaucer tous ses rêves d’une black music pour tous.
Circle, dont les textes sont signés Copley, est dans l’exacte continuité de Home : il distille des thèmes assez fastueux (« All Alone », « Liar », « Cut All Ties »), nourris d’un groove profond (« Oh No »), de potentiels hits proches de la dance music (« Keep My Baby Dancing »), sans oublier le passage par quelques ballades élégamment tournées (« Circle Of Life »). L’interprétation est sans faille, la rythmique choisit la ligne droite, les cuivres étincellent et les claviers sont entêtants. À l’écoute de cette succession de temps forts (et très agréables), on se dit que les questions existentielles sont superflues. Electro Deluxe ne monte pas sur les barricades d’une révolution musicale en marche, mais n’en clame pas moins sa foi en un monde où les bras seraient levés en direction d’un même but : vibrer ensemble et faire le plein d’énergie. Voilà qui peut s’avérer fort utile…
-- Denis Desassis
Приватный:
Нет (DHT включён)
Размер:
458.15 Мб (480,408,846 байт) » файлов: 20
Участники:
0 раздают, 0 качают (0 участников всего)
Внешние участники:
3 раздают, 1 качают (4 участников всего) [ Обновить ]
No seeders - write a personal message to user M0p94ok. Нет сидеров - пишите личное сообщение пользователю M0p94ok.
13:02
168
Нет комментариев. Ваш будет первым!