Поиск

(Jazz-Funk, Brazil) Banda Black Rio - Maria Fumaсa (1977) - 1994, FLAC (tracks), lossless

(Jazz-Funk, Brazil) Banda Black Rio - Maria Fumaсa (1977) - 1994, FLAC (tracks), lossless
Banda Black Rio - Maria Fumaсa
Жанр: Jazz-Funk, Brazil
Страна-производитель диска: Brazil
Год издания диска: 1994
Издатель (лейбл): Warner Music (Brazil)
Номер по каталогу: 450996349-2
Аудиокодек: FLAC (*.flac)
Тип рипа: tracks
Битрейт аудио: lossless
Продолжительность: 29:41
Источник (релизер): wata
Наличие сканов в содержимом раздачи: нет
Треклист:
1 Maria Fumaça 2:22
2 Na Baixa Do Sapateiro 3:02
3 Mr. Funky Samba 3:36
4 Caminho Da Roça 2:57
5 Metalúrgica 2:30
6 Baião 3:26
7 Casa Forte 2:22
8 Leblon Via Vaz Lôbo 3:02
9 Urubu Malandro 2:28
10 Junia 3:39
 
Лог создания рипа
Exact Audio Copy V0.99 prebeta 5 from 4. May 2009
EAC extraction logfile from 22. November 2009, 19:03
Banda Black Rio / Maria Fumaзa
Used drive : Optiarc DVD RW AD-7561A Adapter: 0 ID: 0
Read mode : Secure
Utilize accurate stream : Yes
Defeat audio cache : Yes
Make use of C2 pointers : No
Read offset correction : 6
Overread into Lead-In and Lead-Out : No
Fill up missing offset samples with silence : Yes
Delete leading and trailing silent blocks : No
Null samples used in CRC calculations : Yes
Used interface : Native Win32 interface for Win NT & 2000
Gap handling : Appended to previous track
Used output format : User Defined Encoder
Selected bitrate : 768 kBit/s
Quality : High
Add ID3 tag : No
Command line compressor : C:\Program Files (x86)\Exact Audio Copy\FLAC\FLAC.EXE
Additional command line options : -6 -V -T "ARTIST=%a" -T "TITLE=%t" -T "ALBUM=%g" -T "DATE=%y" -T "TRACKNUMBER=%n" -T "GENRE=%m" -T "COMMENT=%e" %s -o %d
TOC of the extracted CD
Track | Start | Length | Start sector | End sector
---------------------------------------------------------
1 | 0:00.32 | 2:24.60 | 32 | 10891
2 | 2:25.17 | 3:26.63 | 10892 | 26404
3 | 5:52.05 | 3:39.20 | 26405 | 42849
4 | 9:31.25 | 3:02.32 | 42850 | 56531
5 | 12:33.57 | 3:01.30 | 56532 | 70136
6 | 15:35.12 | 2:59.45 | 70137 | 83606
7 | 18:34.57 | 2:22.00 | 83607 | 94256
8 | 20:56.57 | 2:32.40 | 94257 | 105696
9 | 23:29.22 | 2:31.08 | 105697 | 117029
10 | 26:00.30 | 3:41.27 | 117030 | 133631
Track 1
Filename H:\Ripados\tmp\Banda Black Rio - 01 - Maria Fumaзa.wav
Pre-gap length 0:00:02.32
Peak level 100.0 %
Track quality 99.9 %
Test CRC 71C3CAB8
Copy CRC 71C3CAB8
Copy OK
Track 2
Filename H:\Ripados\tmp\Banda Black Rio - 02 - Na Baixa do Sapateiro.wav
Pre-gap length 0:00:01.12
Peak level 96.8 %
Track quality 100.0 %
Test CRC A8F4909C
Copy CRC A8F4909C
Copy OK
Track 3
Filename H:\Ripados\tmp\Banda Black Rio - 03 - Mr Funky Samba.wav
Pre-gap length 0:00:02.25
Peak level 100.0 %
Track quality 100.0 %
Test CRC 1EF6D709
Copy CRC 1EF6D709
Copy OK
Track 4
Filename H:\Ripados\tmp\Banda Black Rio - 04 - Caminho da Roзa.wav
Pre-gap length 0:00:01.20
Peak level 99.2 %
Track quality 100.0 %
Test CRC 0F25431A
Copy CRC 0F25431A
Copy OK
Track 5
Filename H:\Ripados\tmp\Banda Black Rio - 05 - Metalъrgica.wav
Peak level 94.7 %
Track quality 100.0 %
Test CRC 8D1AE08F
Copy CRC 8D1AE08F
Copy OK
Track 6
Filename H:\Ripados\tmp\Banda Black Rio - 06 - Baiгo.wav
Pre-gap length 0:00:00.72
Peak level 100.0 %
Track quality 100.0 %
Test CRC 3709CE3B
Copy CRC 3709CE3B
Copy OK
Track 7
Filename H:\Ripados\tmp\Banda Black Rio - 07 - Casa Forte.wav
Pre-gap length 0:00:02.00
Peak level 100.0 %
Track quality 100.0 %
Test CRC BB8DC303
Copy CRC BB8DC303
Copy OK
Track 8
Filename H:\Ripados\tmp\Banda Black Rio - 08 - Leblon Via Vaz Lobo.wav
Peak level 100.0 %
Track quality 100.0 %
Test CRC 06FCE22C
Copy CRC 06FCE22C
Copy OK
Track 9
Filename H:\Ripados\tmp\Banda Black Rio - 09 - Urubu Malandro.wav
Pre-gap length 0:00:00.70
Peak level 100.0 %
Track quality 99.9 %
Test CRC 9F8A2307
Copy CRC 9F8A2307
Copy OK
Track 10
Filename H:\Ripados\tmp\Banda Black Rio - 10 - Junia.wav
Pre-gap length 0:00:01.08
Peak level 97.0 %
Track quality 100.0 %
Test CRC 1DAA051D
Copy CRC 1DAA051D
Copy OK
No errors occurred
End of status report
01:24
325
Нет комментариев. Ваш будет первым!