Вы используете незарегистрированную версию компонента "Вкладки"!

Поиск

(Jazz+Funk,Blues,Fusion) Larry Carlton & Tak Matsumoto- Take Your Pick/feat.Billy Kilson,Michael Rhodes,Jeff Babko/ - 2010, APE (image+.cue), lossless

Треклист:
Larry Carlton & Tak Matsumoto- Take Your Pick/feat.Billy Kilson,Michael Rhodes,Jeff Babko/
Жанр: Jazz+Funk,Blues,Fusion
Год выпуска диска: 2010
Производитель диска: Being/Japan/
Аудио кодек: APE
Тип рипа: image+.cue
Битрейт аудио: lossless
Продолжительность: 01:01:09
Трэклист:
1.Jazzy bullets
2.Nite crawler
3.The way we were
4.Islands of Japan
5.Neon blue
6.Tokyo night
7.Hotalu
8.East west stroll
9.Easy mystery
10.Ao
11.Take your pick
12.A girl from china
Доп. информация: Band:
Larry Karlton & Tak Matsumoto-guitars
Billy Kilson-drums
Michael Rhodes-bass
Jeff Babko-keyboards
Все остальные участники проекта,указаны в сканах.

Рип из личного архива.
 
Отчёт EAC
Exact Audio Copy V0.99 prebeta 4 from 23. January 2008
Отчёт EAC об извлечении, выполненном 7. июля 2010, 1:35
Larry Carlton & Tak Matsumoto / Take Your Pick
Дисковод: _NEC DVD_RW ND-2510A Adapter: 1 ID: 0
Режим чтения : Достоверность
Использование точного потока : Да
Отключение кэша аудио : Да
Использование указателей C2 : Нет
Коррекция смещения при чтении : 48
Способность читать области Lead-in и Lead-out : Нет
Заполнение пропущенных сэмплов тишиной : Да
Удаление блоков с тишиной в начале и конце : Нет
При вычислениях CRC использовались нулевые сэмплы : Да
Интерфейс : Установленный внешний ASPI-интерфейс
Выходной формат : Внутренние WAV-операции
Формат сэмплов : 44.100 Гц; 16 бит; стерео
TOC извлечённого CD
Трек | Старт | Длительность | Начальный сектор | Конечный сектор
---------------------------------------------------------------------
1 | 0:00.00 | 4:22.49 | 0 | 19698
2 | 4:22.49 | 6:09.00 | 19699 | 47373
3 | 10:31.49 | 4:58.04 | 47374 | 69727
4 | 15:29.53 | 4:38.55 | 69728 | 90632
5 | 20:08.33 | 6:16.24 | 90633 | 118856
6 | 26:24.57 | 4:33.61 | 118857 | 139392
7 | 30:58.43 | 4:53.21 | 139393 | 161388
8 | 35:51.64 | 5:31.10 | 161389 | 186223
9 | 41:22.74 | 5:11.29 | 186224 | 209577
10 | 46:34.28 | 4:08.50 | 209578 | 228227
11 | 50:43.03 | 4:49.65 | 228228 | 249967
12 | 55:32.68 | 5:36.30 | 249968 | 275197
Характеристики диапазона извлечения и сообщения об ошибках
Выбранный диапазон
Имя файла E:\ПРОЕКТ\Larry Carlton & Tak Matsumoto-Take Your Pick 2010\Larry Carlton & Tak Matsumoto - Take Your Pick.wav
Пиковый уровень 99.8 %
Качество диапазона 99.9 %
CRC теста FDDF3910
CRC копии FDDF3910
Копирование... OK
Ошибок не произошло
AccurateRip: сводка
Трек 1 нет в базе данных
Трек 2 нет в базе данных
Трек 3 нет в базе данных
Трек 4 нет в базе данных
Трек 5 нет в базе данных
Трек 6 нет в базе данных
Трек 7 нет в базе данных
Трек 8 нет в базе данных
Трек 9 нет в базе данных
Трек 10 нет в базе данных
Трек 11 нет в базе данных
Трек 12 нет в базе данных
Ни одного трека нет в базе AccurateRip
Конец отчёта
Any questions - support@pro-jazz.com. Есть вопросы - support@pro-jazz.com
18:36
308
Нет комментариев. Ваш будет первым!