Вы используете незарегистрированную версию компонента "Вкладки"!

Поиск

(Jazz, Free Jazz) Ornette Coleman - Virgin Beauty - 1988, FLAC (tracks+.cue), lossless

Треклист:
Ornette Coleman - Virgin Beauty
Трэклист:
01. 3 Wishes 04:24
02. Bourgeois Boogie 05:12
03. Happy Hour 04:50
04. Virgin Beauty 03:35
05. Healing the Feeling 05:22
06. Singing in the Shower 04:27
07. Desert Players 04:24
08. Honeymooners 04:25
09. Chanting 03:02
10. Spelling the Alphabet 01:31
11. Unknown Artist 04:12
Продолжительность: 00:45:24
 
LOG
Exact Audio Copy V0.99 prebeta 4 from 23. January 2008
EAC extraction logfile from 12. May 2009, 22:24
Ornette Coleman / Virgin Beauty
Used drive : Optiarc DVD RW AD-7190S Adapter: 2 ID: 1
Read mode : Secure
Utilize accurate stream : Yes
Defeat audio cache : Yes
Make use of C2 pointers : No
Read offset correction : 6
Overread into Lead-In and Lead-Out : No
Fill up missing offset samples with silence : Yes
Delete leading and trailing silent blocks : No
Null samples used in CRC calculations : Yes
Used interface : Native Win32 interface for Win NT & 2000
Gap handling : Appended to previous track
Used output format : User Defined Encoder
Selected bitrate : 128 kBit/s
Quality : High
Add ID3 tag : No
Command line compressor : C:\Program Files\Exact Audio Copy\Flac\flac.exe
Additional command line options : -V -8 -T "artist=%a" -T "title=%t" -T "album=%g" -T "date=%y" -T "tracknumber=%n" -T "genre=%m" %s
TOC of the extracted CD
Track | Start | Length | Start sector | End sector
---------------------------------------------------------
1 | 0:00.00 | 4:23.30 | 0 | 19754
2 | 4:23.30 | 5:11.15 | 19755 | 43094
3 | 9:34.45 | 4:49.17 | 43095 | 64786
4 | 14:23.62 | 3:34.20 | 64787 | 80856
5 | 17:58.07 | 5:21.25 | 80857 | 104956
6 | 23:19.32 | 4:26.43 | 104957 | 124949
7 | 27:46.00 | 4:24.10 | 124950 | 144759
8 | 32:10.10 | 4:24.25 | 144760 | 164584
9 | 36:34.35 | 3:01.40 | 164585 | 178199
10 | 39:36.00 | 1:30.52 | 178200 | 185001
11 | 41:06.52 | 4:12.00 | 185002 | 203901
Track 1
Filename C:\EACrips\Ornette Coleman - 1988 - Virgin Beauty\01 - 3 Wishes.wav
Pre-gap length 0:00:02.00
Peak level 87.6 %
Track quality 100.0 %
Test CRC D42EEA71
Copy CRC D42EEA71
Accurately ripped (confidence 2) [31C323A9]
Copy OK
Track 2
Filename C:\EACrips\Ornette Coleman - 1988 - Virgin Beauty\02 - Bourgeois Boogie.wav
Pre-gap length 0:00:03.68
Peak level 99.7 %
Track quality 100.0 %
Test CRC 55084CA1
Copy CRC 55084CA1
Accurately ripped (confidence 2) [7D557075]
Copy OK
Track 3
Filename C:\EACrips\Ornette Coleman - 1988 - Virgin Beauty\03 - Happy Hour.wav
Pre-gap length 0:00:01.20
Peak level 99.6 %
Track quality 99.9 %
Test CRC 5D95EB65
Copy CRC 5D95EB65
Accurately ripped (confidence 2) [12E43EE4]
Copy OK
Track 4
Filename C:\EACrips\Ornette Coleman - 1988 - Virgin Beauty\04 - Virgin Beauty.wav
Pre-gap length 0:00:04.37
Peak level 68.9 %
Track quality 100.0 %
Test CRC 468A2E61
Copy CRC 468A2E61
Accurately ripped (confidence 2) [5DFDC1B1]
Copy OK
Track 5
Filename C:\EACrips\Ornette Coleman - 1988 - Virgin Beauty\05 - Healing the Feeling.wav
Pre-gap length 0:00:00.57
Peak level 97.7 %
Track quality 100.0 %
Test CRC 641B8542
Copy CRC 641B8542
Accurately ripped (confidence 2) [85626035]
Copy OK
Track 6
Filename C:\EACrips\Ornette Coleman - 1988 - Virgin Beauty\06 - Singing in the Shower.wav
Pre-gap length 0:00:01.45
Peak level 97.9 %
Track quality 100.0 %
Test CRC 288B0936
Copy CRC 288B0936
Accurately ripped (confidence 2) [14D1F724]
Copy OK
Track 7
Filename C:\EACrips\Ornette Coleman - 1988 - Virgin Beauty\07 - Desert Players.wav
Pre-gap length 0:00:03.68
Peak level 83.6 %
Track quality 100.0 %
Test CRC 509E52C4
Copy CRC 509E52C4
Accurately ripped (confidence 2) [86C1F3BA]
Copy OK
Track 8
Filename C:\EACrips\Ornette Coleman - 1988 - Virgin Beauty\08 - Honeymooners.wav
Pre-gap length 0:00:00.13
Peak level 96.0 %
Track quality 99.9 %
Test CRC 21BE6807
Copy CRC 21BE6807
Accurately ripped (confidence 2) [3D243520]
Copy OK
Track 9
Filename C:\EACrips\Ornette Coleman - 1988 - Virgin Beauty\09 - Chanting.wav
Pre-gap length 0:00:02.25
Peak level 67.4 %
Track quality 100.0 %
Test CRC 3CACD1B9
Copy CRC 3CACD1B9
Accurately ripped (confidence 2) [A1CAEDC4]
Copy OK
Track 10
Filename C:\EACrips\Ornette Coleman - 1988 - Virgin Beauty\10 - Spelling the Alphabet.wav
Pre-gap length 0:00:01.15
Peak level 99.7 %
Track quality 100.0 %
Test CRC B7B4A188
Copy CRC B7B4A188
Accurately ripped (confidence 2) [08F19360]
Copy OK
Track 11
Filename C:\EACrips\Ornette Coleman - 1988 - Virgin Beauty\11 - Unknown Artist.wav
Pre-gap length 0:00:04.65
Peak level 51.2 %
Track quality 100.0 %
Test CRC A9472B7D
Copy CRC A9472B7D
Cannot be verified as accurate (confidence 4) [01E1D9F2], AccurateRip returned [AFA5CA44]
Copy OK
0 track(s) accurately ripped
1 track(s) could not be verified as accurate
Some tracks could not be verified as accurate
No errors occurred
End of status report
 
сue
REM GENRE Jazz
REM DATE 1988
REM DISCID A10A9E0B
REM COMMENT "ExactAudioCopy v0.99pb4"
PERFORMER "Ornette Coleman"
TITLE "Virgin Beauty"
FILE "01 - 3 Wishes.wav" WAVE
TRACK 01 AUDIO
TITLE "3 Wishes"
PERFORMER "Ornette Coleman"
INDEX 01 00:00:00
TRACK 02 AUDIO
TITLE "Bourgeois Boogie"
PERFORMER "Ornette Coleman"
INDEX 00 04:19:37
FILE "02 - Bourgeois Boogie.wav" WAVE
INDEX 01 00:00:00
TRACK 03 AUDIO
TITLE "Happy Hour"
PERFORMER "Ornette Coleman"
INDEX 00 05:09:70
FILE "03 - Happy Hour.wav" WAVE
INDEX 01 00:00:00
TRACK 04 AUDIO
TITLE "Virgin Beauty"
PERFORMER "Ornette Coleman"
INDEX 00 04:44:55
FILE "04 - Virgin Beauty.wav" WAVE
INDEX 01 00:00:00
TRACK 05 AUDIO
TITLE "Healing the Feeling"
PERFORMER "Ornette Coleman"
INDEX 00 03:33:38
FILE "05 - Healing the Feeling.wav" WAVE
INDEX 01 00:00:00
TRACK 06 AUDIO
TITLE "Singing in the Shower"
PERFORMER "Ornette Coleman"
INDEX 00 05:19:55
FILE "06 - Singing in the Shower.wav" WAVE
INDEX 01 00:00:00
TRACK 07 AUDIO
TITLE "Desert Players"
PERFORMER "Ornette Coleman"
INDEX 00 04:22:50
FILE "07 - Desert Players.wav" WAVE
INDEX 01 00:00:00
TRACK 08 AUDIO
TITLE "Honeymooners"
PERFORMER "Ornette Coleman"
INDEX 00 04:23:72
FILE "08 - Honeymooners.wav" WAVE
INDEX 01 00:00:00
TRACK 09 AUDIO
TITLE "Chanting"
PERFORMER "Ornette Coleman"
INDEX 00 04:22:00
FILE "09 - Chanting.wav" WAVE
INDEX 01 00:00:00
TRACK 10 AUDIO
TITLE "Spelling the Alphabet"
PERFORMER "Ornette Coleman"
INDEX 00 03:00:25
FILE "10 - Spelling the Alphabet.wav" WAVE
INDEX 01 00:00:00
TRACK 11 AUDIO
TITLE "Unknown Artist"
PERFORMER "Ornette Coleman"
INDEX 00 01:25:62
FILE "11 - Unknown Artist.wav" WAVE
INDEX 01 00:00:00
Any questions -> support@pro-jazz.com. По всем вопросам пишите -> support@pro-jazz.com
00:54
273
Нет комментариев. Ваш будет первым!