Вы используете незарегистрированную версию компонента "Вкладки"!

Поиск

(Jazz, Free Jazz) Ethnic Heritage Ensemble - Hot 'n' Heavy - Live at the Ascension Loft - 2007, FLAC (tracks+.cue), lossless

(Jazz, Free Jazz) Ethnic Heritage Ensemble - Hot 'n' Heavy - Live at the Ascension Loft - 2007, FLAC (tracks+.cue), lossless
Треклист:
Ethnic Heritage Ensemble / Hot 'n' Heavy - Live at the Ascension Loft
Жанр: Jazz, Free Jazz
Страна-производитель диска: U.S.A.
Год издания: 2007
Издатель (лейбл): Delmark Records
Номер по каталогу: DE 574
Аудиокодек: FLAC (*.flac)
Тип рипа: tracks+.cue
Битрейт аудио: lossless
Продолжительность: 1:09:25
Источник (релизер): Max Monteiro
Наличие сканов в содержимом раздачи: да
Треклист:
1. Major to Minor 15:26
2. MT 13:06
3. Hot ‘n’ Heavy 10:34
4. There Is a Place 14:51
5. Black as Vera Cruz 15:28
All compositions by Kahil El’Zabar.
 
Лог создания рипа
Exact Audio Copy V1.0 beta 3 from 29. August 2011
EAC extraction logfile from 8. March 2013, 9:50
Ethnic Heritage Ensemble / Hot 'n' Heavy - Live at the Ascension Loft
Used drive : SlimtypeeNAU508 5 Adapter: 1 ID: 0
Read mode : Secure
Utilize accurate stream : Yes
Defeat audio cache : Yes
Make use of C2 pointers : No
Read offset correction : 6
Overread into Lead-In and Lead-Out : No
Fill up missing offset samples with silence : Yes
Delete leading and trailing silent blocks : No
Null samples used in CRC calculations : Yes
Used interface : Native Win32 interface for Win NT & 2000
Gap handling : Appended to previous track
Used output format : User Defined Encoder
Selected bitrate : 768 kBit/s
Quality : High
Add ID3 tag : No
Command line compressor : C:\Program Files (x86)\Exact Audio Copy\Flac\flac.exe
Additional command line options : -8 -V -T "ARTIST=%artist%" -T "TITLE=%title%" -T "ALBUM=%albumtitle%" -T "DATE=%year%" -T "TRACKNUMBER=%tracknr%" -T "GENRE=%genre%" -T "PERFORMER=%albuminterpret%" -T "COMPOSER=%composer%" %haslyrics%--tag-from-file=LYRICS="%lyricsfile%"%haslyrics% -T "ALBUMARTIST=%albumartist%" -T "DISCNUMBER=%cdnumber%" -T "TOTALDISCS=%totalcds%" -T "TOTALTRACKS=%numtracks%" -T "COMMENT=%comment%" %source% -o %dest%
TOC of the extracted CD
Track | Start | Length | Start sector | End sector
---------------------------------------------------------
1 | 0:00.00 | 15:25.42 | 0 | 69416
2 | 15:25.42 | 13:06.15 | 69417 | 128381
3 | 28:31.57 | 10:33.71 | 128382 | 175927
4 | 39:05.53 | 14:50.69 | 175928 | 242746
5 | 53:56.47 | 15:27.69 | 242747 | 312340
Track 1
Filename C:\EAC rips\01 - Major to Minor.wav
Pre-gap length 0:00:02.00
Peak level 100.0 %
Extraction speed 2.6 X
Track quality 100.0 %
Test CRC 53E461EB
Copy CRC 53E461EB
Accurately ripped (confidence 2) [03FA167A] (AR v1)
Copy OK
Track 2
Filename C:\EAC rips\02 - MT.wav
Peak level 100.0 %
Extraction speed 3.3 X
Track quality 100.0 %
Test CRC 4A45E105
Copy CRC 4A45E105
Accurately ripped (confidence 2) [3A3C6A87] (AR v1)
Copy OK
Track 3
Filename C:\EAC rips\03 - Hot 'n' Heavy.wav
Peak level 100.0 %
Extraction speed 3.8 X
Track quality 100.0 %
Test CRC 19B495EB
Copy CRC 19B495EB
Accurately ripped (confidence 2) [C3974323] (AR v1)
Copy OK
Track 4
Filename C:\EAC rips\04 - There Is a Place.wav
Peak level 59.2 %
Extraction speed 4.3 X
Track quality 100.0 %
Test CRC 90F13DE2
Copy CRC 90F13DE2
Accurately ripped (confidence 2) [D16FBC75] (AR v1)
Copy OK
Track 5
Filename C:\EAC rips\05 - Black As Vera Cruz.wav
Peak level 100.0 %
Extraction speed 4.4 X
Track quality 99.9 %
Test CRC F1B2B95B
Copy CRC F1B2B95B
Accurately ripped (confidence 2) [ACAFA76B] (AR v1)
Copy OK
All tracks accurately ripped
No errors occurred
End of status report
---- CUETools DB Plugin V2.1.4
[CTDB TOCID: Gf28GJ8lQqEkGbPd9K8d93u7XVQ-] disk not present in database
Submit result: Gf28GJ8lQqEkGbPd9K8d93u7XVQ- has been uploaded
==== Log checksum BF3C2189D7ABCE6CCBBE4AD672A943A4BACA3F58AB990F5A3A12F436C09D8FB8 ====
 
Содержание индексной карты (.CUE)
REM GENRE Jazz
REM DATE 2007
REM DISCID 40104405
REM COMMENT "ExactAudioCopy v1.0b3"
PERFORMER "Ethnic Heritage Ensemble"
TITLE "Hot 'n' Heavy - Live at the Ascension Loft"
FILE "01 - Major to Minor.wav" WAVE
TRACK 01 AUDIO
TITLE "Major to Minor"
PERFORMER "Ethnic Heritage Ensemble"
ISRC US4B90757401
INDEX 01 00:00:00
FILE "02 - MT.wav" WAVE
TRACK 02 AUDIO
TITLE "MT"
PERFORMER "Ethnic Heritage Ensemble"
ISRC US4B90757402
INDEX 01 00:00:00
FILE "03 - Hot 'n' Heavy.wav" WAVE
TRACK 03 AUDIO
TITLE "Hot 'n' Heavy"
PERFORMER "Ethnic Heritage Ensemble"
ISRC US4B90757403
INDEX 01 00:00:00
FILE "04 - There Is a Place.wav" WAVE
TRACK 04 AUDIO
TITLE "There Is a Place"
PERFORMER "Ethnic Heritage Ensemble"
ISRC US4B90757404
INDEX 01 00:00:00
FILE "05 - Black As Vera Cruz.wav" WAVE
TRACK 05 AUDIO
TITLE "Black As Vera Cruz"
PERFORMER "Ethnic Heritage Ensemble"
ISRC US4B90757405
INDEX 01 00:00:00
Доп. информация: Recorded live on July 30, 2006.
 
Состав
Kahil El’Zabar – Earth Drums, Kalimba, Drums, Percussion
Corey Wilkes – Trumpet, Flugelhorn, Percussion
Ernest « Khabeer » Dawkins – Alto and Tenor Sax, Percussion
Fareed Haque – Electric and Acoustic Guitar
Any questions -> support@pro-jazz.com. По всем вопросам пишите -> support@pro-jazz.com
10:00
200
Нет комментариев. Ваш будет первым!