Поиск

(jazz, ECM) Brahem Anouar, John Surman, Dave Holland - Thimar - 1998, APE (image + .cue), lossless

Brahem Anouar, John Surman, Dave Holland - Thimar
Страна: Germany, [ECM 1641]
Жанр: jazz
Год выпуска: 1998
Формат: APE (image + .cue)
Битрейт аудио: lossless
Продолжительность: 54:36
Трэклист:
1.Badhra
2.Kashf
3.Houdouth
4.Talwin
5.Waqt
6.Uns
7.Al Hizam Al Dhahbi
8.Qurb
9.Mazad
10.Kernow
11.Hulmu Rabia
Доп. информация:
Anouar Brahem (oud);
John Surman (bass clarinet, soprano sax);
Dave Holland (double bass).
 
Отчёт EAC
Exact Audio Copy V0.99 prebeta 2 from 28. July 2007
Отчёт EAC об извлечении, выполненном 23. ноября 2007, 18:59
Brahem Anouar, John Surman, Dave Holland / Thimar
Дисковод: HL-DT-STDVDRAM GSA-4167B Adapter: 0 ID: 0
Режим чтения : Достоверность
Использование точного потока : Да
Отключение кэша аудио : Да
Использование указателей C2 : Нет
Коррекция смещения при чтении : 667
Способность читать области Lead-in и Lead-out : Нет
Заполнение пропущенных сэмплов тишиной : Да
Удаление блоков с тишиной в начале и конце : Нет
При вычислениях CRC использовались нулевые сэмплы : Да
Интерфейс : Установленный внешний ASPI-интерфейс
Выходной формат : Внутренние WAV-операции
Формат сэмплов : 44.100 Гц; 16 бит; стерео
TOC извлечённого CD
Трек | Старт | Длительность | Начальный сектор | Конечный сектор
---------------------------------------------------------------------
1 | 0:00.00 | 8:30.15 | 0 | 38264
2 | 8:30.15 | 5:23.00 | 38265 | 62489
3 | 13:53.15 | 5:36.15 | 62490 | 87704
4 | 19:29.30 | 4:18.02 | 87705 | 107056
5 | 23:47.32 | 2:32.48 | 107057 | 118504
6 | 26:20.05 | 4:48.70 | 118505 | 140174
7 | 31:09.00 | 5:40.72 | 140175 | 165746
8 | 36:49.72 | 5:16.10 | 165747 | 189456
9 | 42:06.07 | 5:05.30 | 189457 | 212361
10 | 47:11.37 | 5:10.05 | 212362 | 235616
11 | 52:21.42 | 2:14.33 | 235617 | 245699
Характеристики диапазона извлечения и сообщения об ошибках
Выбранный диапазон
Имя файла H:\Muzlo\JAZZ\BIG JAZZ\RIPER-CUTTER\Brahem Anouar, John Surman, Dave Holland - Thimar - 1998 [ECM 1641].wav
Пиковый уровень 100.0 %
Качество диапазона 100.0 %
CRC копии AD482225
Копирование... OK
Ошибок не произошло
Конец отчёта
00:50
518
Нет комментариев. Ваш будет первым!