Поиск

(Jazz, Cuban) Bebo Valdes & Javier Colina - Live at the Village Vanguard - 2007, FLAC (image+.cue), lossless

(Jazz, Cuban) Bebo Valdes & Javier Colina - Live at the Village Vanguard - 2007, FLAC (image+.cue), lossless
Треклист:
Bebo Valdes & Javier Colina - Live at the Village Vanguard
Жанр: Jazz, Cuban
Год выпуска диска: 2007
Производитель диска: Sony
Аудио кодек: FLAC
Тип рипа: image+.cue
Битрейт аудио: lossless
Продолжительность: 65:16
Трэклист:
1. Con Poco Coco
2. Sabor a Mí
3. Ritmando el Cha-Cha-Cha
4. Rosa Mustia
5. Andalucía
6. Siboney
7. Tres Palabras
8. Aquellos Ojos Verdes
9. Bilongo
10. Si Te Contara
11. Bebo's Blues
12. Yesterdays
13. El Manisero
14. Waltz for Debby
Log
 
скрытый текст
Exact Audio Copy V0.99 prebeta 4 from 23. January 2008
EAC extraction logfile from 12. December 2008, 3:13
Bebo Valdes & Javier Colina / Live at the Village Vanguard
Used drive : ASUS DRW-1814BLT Adapter: 3 ID: 1
Read mode : Secure
Utilize accurate stream : Yes
Defeat audio cache : Yes
Make use of C2 pointers : No
Read offset correction : 6
Overread into Lead-In and Lead-Out : No
Fill up missing offset samples with silence : Yes
Delete leading and trailing silent blocks : No
Null samples used in CRC calculations : No
Used interface : Native Win32 interface for Win NT & 2000
Used output format : User Defined Encoder
Selected bitrate : 1024 kBit/s
Quality : High
Add ID3 tag : Yes
Command line compressor : C:\Program Files\Exact Audio Copy\FLAC\FLAC.EXE
Additional command line options : -6 -V -T "ARTIST=%a" -T "TITLE=%t" -T "ALBUM=%g" -T "DATE=%y" -T "TRACKNUMBER=%n" -T "GENRE=%m" -T "COMMENT=%e" %s -o %d
TOC of the extracted CD
Track | Start | Length | Start sector | End sector
---------------------------------------------------------
1 | 0:00.00 | 6:29.64 | 0 | 29238
2 | 6:29.64 | 3:34.68 | 29239 | 45356
3 | 10:04.57 | 5:50.08 | 45357 | 71614
4 | 15:54.65 | 6:28.24 | 71615 | 100738
5 | 22:23.14 | 2:29.52 | 100739 | 111965
6 | 24:52.66 | 4:11.52 | 111966 | 130842
7 | 29:04.43 | 2:41.29 | 130843 | 142946
8 | 31:45.72 | 3:54.52 | 142947 | 160548
9 | 35:40.49 | 5:48.30 | 160549 | 186678
10 | 41:29.04 | 4:30.37 | 186679 | 206965
11 | 45:59.41 | 4:44.04 | 206966 | 228269
12 | 50:43.45 | 4:15.69 | 228270 | 247463
13 | 54:59.39 | 5:26.15 | 247464 | 271928
14 | 60:25.54 | 4:50.67 | 271929 | 293745
Range status and errors
Selected range
Filename C:\Documents and Settings\Bebo Valdes & Javier Colina - 2007 - Live at the Village Vanguard\Bebo Valdes & Javier Colina - Live at the Village Vanguard.wav
Peak level 100.0 %
Range quality 100.0 %
Copy CRC F13E0A0C
Copy OK
No errors occurred
End of status report
04:58
279
Нет комментариев. Ваш будет первым!