Поиск

(Jazz, Crossover Jazz, World Music, Chamber Jazz) Quadro Nuevo - Weihnacht - 2008, APE (image+.cue), lossless

(Jazz, Crossover Jazz, World Music, Chamber Jazz) Quadro Nuevo - Weihnacht - 2008, APE (image+.cue), lossless
Треклист:
Quadro Nuevo - Weihnacht
Жанр: Jazz, Crossover Jazz, World Music, Chamber Jazz
Издание: Fine Music FM 134-2, 2008 год
Аудио кодек: APE
Тип рипа: image+.cue
Продолжительность: 1:06:14
Трэклист:
1. Maria durch einґ Dornwald ging
2. O Little Town of Bethlehem
3. Kommet ihr Hirten
4. Entre le Boeuf et lґAne gris
5. Stille Nacht, Heilige Nacht
6. Oh Heiland, reiЯ die Himmel auf
7. Santa Lucia
8. Vom Himmel hoch, da komm ich her
9. Es ist einґ Rosґ entsprungen
10. Als ich bei meinen Schafen wacht
11. Still, still, still
12. Es wead scho glei dumpa
13. Away in a Manger
14. Mariд Wiegenlied
15. Villancico
16. Nyne Otpushchayeshi
17. Aber Heidschi, Bumbeidschi
18. SьЯer die Glocken nie klingen
19. Die dunkle Nacht ist nun dahin
20. Neujahrslied
 
Отчёт EAC
Exact Audio Copy V0.99 prebeta 4 from 23. January 2008
Отчёт EAC об извлечении, выполненном 3. марта 2009, 19:06
Quadro Nuevo / Weihnacht
Дисковод: PIONEER DVD-RW DVR-108 Adapter: 4 ID: 1
Режим чтения : Достоверность
Использование точного потока : Да
Отключение кэша аудио : Да
Использование указателей C2 : Нет
Коррекция смещения при чтении : 48
Способность читать области Lead-in и Lead-out : Нет
Заполнение пропущенных сэмплов тишиной : Да
Удаление блоков с тишиной в начале и конце : Нет
При вычислениях CRC использовались нулевые сэмплы : Да
Интерфейс : Встроенный Win32-интерфейс для Win NT/2000
Выходной формат : Внутренние WAV-операции
Формат сэмплов : 44.100 Гц; 16 бит; стерео
TOC извлечённого CD
Трек | Старт | Длительность | Начальный сектор | Конечный сектор
---------------------------------------------------------------------
1 | 0:00.00 | 3:59.69 | 0 | 17993
2 | 3:59.69 | 4:21.16 | 17994 | 37584
3 | 8:21.10 | 2:54.43 | 37585 | 50677
4 | 11:15.53 | 3:22.24 | 50678 | 65851
5 | 14:38.02 | 4:38.43 | 65852 | 86744
6 | 19:16.45 | 4:42.08 | 86745 | 107902
7 | 23:58.53 | 4:05.55 | 107903 | 126332
8 | 28:04.33 | 1:20.67 | 126333 | 132399
9 | 29:25.25 | 4:41.00 | 132400 | 153474
10 | 34:06.25 | 4:40.26 | 153475 | 174500
11 | 38:46.51 | 4:12.35 | 174501 | 193435
12 | 42:59.11 | 2:30.37 | 193436 | 204722
13 | 45:29.48 | 1:40.74 | 204723 | 212296
14 | 47:10.47 | 2:17.32 | 212297 | 222603
15 | 49:28.04 | 2:25.14 | 222604 | 233492
16 | 51:53.18 | 3:05.07 | 233493 | 247374
17 | 54:58.25 | 1:35.56 | 247375 | 254555
18 | 56:34.06 | 1:04.53 | 254556 | 259408
19 | 57:38.59 | 5:55.32 | 259409 | 286065
20 | 63:34.16 | 2:39.22 | 286066 | 298012
Характеристики диапазона извлечения и сообщения об ошибках
Выбранный диапазон
Имя файла J:\New Torrents\Quadro Nuevo - Weihnacht\Quadro Nuevo - Weihnacht.wav
Пиковый уровень 99.8 %
Качество диапазона 99.9 %
CRC копии BCD51840
Копирование... OK
Ошибок не произошло
AccurateRip: сводка
Трек 1 нет в базе данных
Трек 2 нет в базе данных
Трек 3 нет в базе данных
Трек 4 нет в базе данных
Трек 5 нет в базе данных
Трек 6 нет в базе данных
Трек 7 нет в базе данных
Трек 8 нет в базе данных
Трек 9 нет в базе данных
Трек 10 нет в базе данных
Трек 11 нет в базе данных
Трек 12 нет в базе данных
Трек 13 нет в базе данных
Трек 14 нет в базе данных
Трек 15 нет в базе данных
Трек 16 нет в базе данных
Трек 17 нет в базе данных
Трек 18 нет в базе данных
Трек 19 нет в базе данных
Трек 20 нет в базе данных
Ни одного трека нет в базе AccurateRip
Конец отчёта
Сканы (300dpi, jpg) вложены.
Это даже скорее не "рождественский", а какой-то именно "ночной" альбом от мастеров сотворить стильное настроение. Слышали мы от них танго, слышали итальянские мелодии, арабские, теперь вот послушаем и ночные
Download available for power users only.
05:11
281
Нет комментариев. Ваш будет первым!