Вы используете незарегистрированную версию компонента "Вкладки"!

Поиск

(Jazz, Cool, Bop) Michel Legrand - Grand Collection - 2004, APE (image+.cue), lossless

Треклист:
Michel Legrand - Grand Collection
Жанр: Jazz, Cool, Bop
Год выпуска диска: 2004
Производитель диска: Россия
Аудио кодек: APE
Тип рипа: image+.cue
Битрейт аудио: lossless
Продолжительность: 77:05
Трэклист:
1. Theme From 'Summer Of 42'
2. Dou Genevieve Guy
3. La Vie En Rose
4. High IQ
5. Les Moulins De Mon Coeur
6. The Last Time I Saw Paris
7. Summer Song
8. Brasil
9. La Ultima Noche
10. Frenesi
11. Adios
12. Les Enfants Qui Pleurent
13. Perfidia
14. Sous Le Ciel De Paris
15. Caravan
16. Generique
17. La Valse Des Lilas
18. Paris Canaille
19. Besame Mucho
20. Siboney
21. Vaya Con Dios
22. Les Grands Musiciens
23. Paris In The Spring
24. Granada
25. L'infernale Poursouite
26. Le Menuet De Grand-Champ
- - - - - - - - - - - - - - - - - - - - - - - - - - - - - - - - - - - - - - - - - - - -
Tracks: 1, 3 - 7, 12, 14, 16 - 18, 22, 23, 25, 26 - Conducted by Michel Legrand
Track 2 - Danielle Licari / Jose Bartel
Tracks: 8 - 11, 13, 15, 19 - 21, 24 - Michel Legrand and His Orchestra
(1958 - 1971)
 
EAC
Exact Audio Copy V0.99 prebeta 4 from 23. January 2008
Отчёт EAC об извлечении, выполненном 19. мая 2010, 18:32
Michel Legrand / Grand Collection
Дисковод: LITE-ON DVDRW LH-20A1H Adapter: 3 ID: 1
Режим чтения : Достоверность
Использование точного потока : Да
Отключение кэша аудио : Да
Использование указателей C2 : Нет
Коррекция смещения при чтении : 6
Способность читать области Lead-in и Lead-out : Нет
Заполнение пропущенных сэмплов тишиной : Да
Удаление блоков с тишиной в начале и конце : Нет
При вычислениях CRC использовались нулевые сэмплы : Да
Интерфейс : Установленный внешний ASPI-интерфейс
Выходной формат : Внутренние WAV-операции
Формат сэмплов : 44.100 Гц; 16 бит; стерео
TOC извлечённого CD
Трек | Старт | Длительность | Начальный сектор | Конечный сектор
---------------------------------------------------------------------
1 | 0:00.00 | 3:52.35 | 0 | 17434
2 | 3:52.35 | 4:55.60 | 17435 | 39619
3 | 8:48.20 | 3:09.35 | 39620 | 53829
4 | 11:57.55 | 2:13.18 | 53830 | 63822
5 | 14:10.73 | 3:29.27 | 63823 | 79524
6 | 17:40.25 | 2:25.06 | 79525 | 90405
7 | 20:05.31 | 4:22.05 | 90406 | 110060
8 | 24:27.36 | 3:40.68 | 110061 | 126628
9 | 28:08.29 | 3:00.64 | 126629 | 140192
10 | 31:09.18 | 2:57.29 | 140193 | 153496
11 | 34:06.47 | 2:45.58 | 153497 | 165929
12 | 36:52.30 | 2:09.07 | 165930 | 175611
13 | 39:01.37 | 2:08.19 | 175612 | 185230
14 | 41:09.56 | 1:51.10 | 185231 | 193565
15 | 43:00.66 | 3:29.54 | 193566 | 209294
16 | 46:30.45 | 2:55.42 | 209295 | 222461
17 | 49:26.12 | 3:21.07 | 222462 | 237543
18 | 52:47.19 | 2:03.48 | 237544 | 246816
19 | 54:50.67 | 2:59.27 | 246817 | 260268
20 | 57:50.19 | 4:09.70 | 260269 | 279013
21 | 62:00.14 | 3:36.08 | 279014 | 295221
22 | 65:36.22 | 2:21.44 | 295222 | 305840
23 | 67:57.66 | 3:31.59 | 305841 | 321724
24 | 71:29.50 | 2:37.45 | 321725 | 333544
25 | 74:07.20 | 2:00.05 | 333545 | 342549
26 | 76:07.25 | 0:57.56 | 342550 | 346880
Характеристики диапазона извлечения и сообщения об ошибках
Выбранный диапазон
Имя файла D:\Michel Legrand - Grand Collection.wav
Пиковый уровень 98.8 %
Качество диапазона 100.0 %
CRC копии AB17755F
Копирование... OK
Ошибок не произошло
AccurateRip: сводка
Трек 1 нет в базе данных
Трек 2 нет в базе данных
Трек 3 нет в базе данных
Трек 4 нет в базе данных
Трек 5 нет в базе данных
Трек 6 нет в базе данных
Трек 7 нет в базе данных
Трек 8 нет в базе данных
Трек 9 нет в базе данных
Трек 10 нет в базе данных
Трек 11 нет в базе данных
Трек 12 нет в базе данных
Трек 13 нет в базе данных
Трек 14 нет в базе данных
Трек 15 нет в базе данных
Трек 16 нет в базе данных
Трек 17 нет в базе данных
Трек 18 нет в базе данных
Трек 19 нет в базе данных
Трек 20 нет в базе данных
Трек 21 нет в базе данных
Трек 22 нет в базе данных
Трек 23 нет в базе данных
Трек 24 нет в базе данных
Трек 25 нет в базе данных
Трек 26 нет в базе данных
Ни одного трека нет в базе AccurateRip
Конец отчёта
 
TAU Analyzer
 
CUE Sheet
REM GENRE Jazz
REM DATE 2004
REM DISCID 9412111A
REM COMMENT "ExactAudioCopy v0.99pb4"
PERFORMER "Michel Legrand"
TITLE "Grand Collection"
FILE "Michel Legrand - Grand Collection.ape" WAVE
TRACK 01 AUDIO
TITLE "Theme From 'Summer Of 42'"
PERFORMER "Michel Legrand"
FLAGS DCP
INDEX 01 00:00:00
TRACK 02 AUDIO
TITLE "Dou Genevieve Guy"
PERFORMER "Michel Legrand"
FLAGS DCP
INDEX 00 03:50:35
INDEX 01 03:52:35
TRACK 03 AUDIO
TITLE "La Vie En Rose"
PERFORMER "Michel Legrand"
FLAGS DCP
INDEX 00 08:46:20
INDEX 01 08:48:20
TRACK 04 AUDIO
TITLE "High IQ"
PERFORMER "Michel Legrand"
FLAGS DCP
INDEX 00 11:55:55
INDEX 01 11:57:55
TRACK 05 AUDIO
TITLE "Les Moulins De Mon Coeur"
PERFORMER "Michel Legrand"
FLAGS DCP
INDEX 00 14:08:73
INDEX 01 14:10:73
TRACK 06 AUDIO
TITLE "The Last Time I Saw Paris"
PERFORMER "Michel Legrand"
FLAGS DCP
INDEX 00 17:38:25
INDEX 01 17:40:25
TRACK 07 AUDIO
TITLE "Summer Song"
PERFORMER "Michel Legrand"
FLAGS DCP
INDEX 00 20:03:31
INDEX 01 20:05:31
TRACK 08 AUDIO
TITLE "Brasil"
PERFORMER "Michel Legrand"
FLAGS DCP
INDEX 00 24:25:36
INDEX 01 24:27:36
TRACK 09 AUDIO
TITLE "La Ultima Noche"
PERFORMER "Michel Legrand"
FLAGS DCP
INDEX 00 28:06:29
INDEX 01 28:08:29
TRACK 10 AUDIO
TITLE "Frenesi"
PERFORMER "Michel Legrand"
FLAGS DCP
INDEX 00 31:07:18
INDEX 01 31:09:18
TRACK 11 AUDIO
TITLE "Adios"
PERFORMER "Michel Legrand"
FLAGS DCP
INDEX 00 34:04:47
INDEX 01 34:06:47
TRACK 12 AUDIO
TITLE "Les Enfants Qui Pleurent"
PERFORMER "Michel Legrand"
FLAGS DCP
INDEX 00 36:50:30
INDEX 01 36:52:30
TRACK 13 AUDIO
TITLE "Perfidia"
PERFORMER "Michel Legrand"
FLAGS DCP
INDEX 00 38:59:37
INDEX 01 39:01:37
TRACK 14 AUDIO
TITLE "Sous Le Ciel De Paris"
PERFORMER "Michel Legrand"
FLAGS DCP
INDEX 00 41:07:56
INDEX 01 41:09:56
TRACK 15 AUDIO
TITLE "Caravan"
PERFORMER "Michel Legrand"
FLAGS DCP
INDEX 00 42:58:66
INDEX 01 43:00:66
TRACK 16 AUDIO
TITLE "Generique"
PERFORMER "Michel Legrand"
FLAGS DCP
INDEX 00 46:28:45
INDEX 01 46:30:45
TRACK 17 AUDIO
TITLE "La Valse Des Lilas"
PERFORMER "Michel Legrand"
FLAGS DCP
INDEX 00 49:24:12
INDEX 01 49:26:12
TRACK 18 AUDIO
TITLE "Paris Canaille"
PERFORMER "Michel Legrand"
FLAGS DCP
INDEX 00 52:45:19
INDEX 01 52:47:19
TRACK 19 AUDIO
TITLE "Besame Mucho"
PERFORMER "Michel Legrand"
FLAGS DCP
INDEX 00 54:48:67
INDEX 01 54:50:67
TRACK 20 AUDIO
TITLE "Siboney"
PERFORMER "Michel Legrand"
FLAGS DCP
INDEX 00 57:48:19
INDEX 01 57:50:19
TRACK 21 AUDIO
TITLE "Vaya Con Dios"
PERFORMER "Michel Legrand"
FLAGS DCP
INDEX 00 61:58:14
INDEX 01 62:00:14
TRACK 22 AUDIO
TITLE "Les Grands Musiciens"
PERFORMER "Michel Legrand"
FLAGS DCP
INDEX 00 65:34:22
INDEX 01 65:36:22
TRACK 23 AUDIO
TITLE "Paris In The Spring"
PERFORMER "Michel Legrand"
FLAGS DCP
INDEX 00 67:55:66
INDEX 01 67:57:66
TRACK 24 AUDIO
TITLE "Granada"
PERFORMER "Michel Legrand"
FLAGS DCP
INDEX 00 71:27:50
INDEX 01 71:29:50
TRACK 25 AUDIO
TITLE "L'infernale Poursouite"
PERFORMER "Michel Legrand"
FLAGS DCP
INDEX 00 74:05:20
INDEX 01 74:07:20
TRACK 26 AUDIO
TITLE "Le Menuet De Grand-Champ"
PERFORMER "Michel Legrand"
FLAGS DCP
INDEX 00 76:05:25
INDEX 01 76:07:25
Доп. информация: Сканы 600 dpi в комплекте. Собственный рип.
Any questions - support@pro-jazz.com. Есть вопросы - support@pro-jazz.com
12:55
274
Нет комментариев. Ваш будет первым!