Поиск

(Jazz Contemporary World Fusion) Lokua Kanza; Richard Bona; Gerald Toto - Toto Bona Lokua - 2005, APE (image+.cue), lossless

Треклист:
Lokua Kanza; Richard Bona; Gerald Toto - Toto Bona Lokua
Жанр: Jazz Contemporary World Fusion
Год выпуска диска: 2005
Аудио кодек: APE
Тип рипа: image+.cue
Битрейт аудио: lossless
Продолжительность: 00.36.18
Трэклист:
1. Ghana Blues
2. Kwalelo
3. Lamuka
4. L'Endormie
5. Flutes
6. The Front
7. Na Ye
8. Help Me
9. Stesuff
10. Where I Came From
11. Seven Beats
12. Lisanga
Доп. информация:
 
скрытый текст
Exact Audio Copy V0.99 prebeta 3 from 28. July 2007
EAC extraction logfile from 2. September 2008, 22:24
Toto Bona Lokua / Toto Bona Lokua
Used drive : PIONEER DVD-RW DVR-112D Adapter: 5 ID: 0
Read mode : Secure
Utilize accurate stream : Yes
Defeat audio cache : Yes
Make use of C2 pointers : No
Read offset correction : 48
Overread into Lead-In and Lead-Out : No
Fill up missing offset samples with silence : Yes
Delete leading and trailing silent blocks : No
Null samples used in CRC calculations : Yes
Used interface : Native Win32 interface for Win NT & 2000
Used output format : Monkey's Audio Lossless Encoder
Selected bitrate : High Lossless Compression
Quality : High
Add ID3 tag : Yes
Command line compressor : C:\Program Files\Monkey's Audio\MAC.exe
Additional command line options : %s %d -c3000
TOC of the extracted CD
Track | Start | Length | Start sector | End sector
---------------------------------------------------------
1 | 0:00.00 | 3:03.66 | 0 | 13790
2 | 3:03.66 | 4:14.50 | 13791 | 32890
3 | 7:18.41 | 2:44.26 | 32891 | 45216
4 | 10:02.67 | 2:36.65 | 45217 | 56981
5 | 12:39.57 | 2:52.10 | 56982 | 69891
6 | 15:31.67 | 0:21.27 | 69892 | 71493
7 | 15:53.19 | 3:35.55 | 71494 | 87673
8 | 19:28.74 | 3:28.73 | 87674 | 103346
9 | 22:57.72 | 1:18.24 | 103347 | 109220
10 | 24:16.21 | 3:31.51 | 109221 | 125096
11 | 27:47.72 | 1:42.03 | 125097 | 132749
12 | 29:30.00 | 6:48.33 | 132750 | 163382
Range status and errors
Selected range
Filename D:\Documents\Lss\New_Rip\Toto Bona Lokua - Toto Bona Lokua\Toto Bona Lokua - Toto Bona Lokua.wav
Peak level 100.0 %
Range quality 99.8 %
Copy CRC 32132C8C
Copy OK
No errors occurred
End of status report
02:31
262
Нет комментариев. Ваш будет первым!