Вы используете незарегистрированную версию компонента "Вкладки"!

Поиск

(Jazz, Contemporary Jazz) Apollo (Autin, Cappozzo, Gibert) - Cap Inedit - 1999, FLAC (tracks+.cue) lossless

Треклист:
Apollo (Autin, Cappozzo, Gibert) - Cap Inedit
Жанр: Jazz, Contemporary Jazz
Страна-производитель диска: France
Год издания диска: 1999
Издатель (лейбл): arfi
Номер по каталогу: AM024
Аудио кодек: FLAC (*.flac)
Тип рипа: tracks+.cue
Битрейт аудио: lossless
Продолжительность: 47:03
Источник (релизер): собственный рип с оригинального диска.
Наличие сканов в содержимом раздачи: да
Треклист:
01. En corde à linge ibère (4mn 56s )
02. Le puisatier de Zubenegenubi (4mn 25s )
03. Didji (3mn 38s )
04. Le bransle des vieux (3mn 01s )
05. Kindertotenlieder (3mn 18s )
06. Bourrée domestique (5mn 40s )
07. Dernier chant des hommes-poussière (4mn 40s )
08. Kouguel (6mn 01s )
09. Jacaranda (4mn 36s )
10. Mardi trois (6mn 48s )
 
Лог создания рипа
Exact Audio Copy V0.99 prebeta 5 from 4. May 2009
EAC extraction logfile from 19. March 2011, 17:11
Apollo / Cap Inedit
Used drive : TSSTcorpCDDVDW SH-S222A Adapter: 1 ID: 0
Read mode : Secure
Utilize accurate stream : Yes
Defeat audio cache : Yes
Make use of C2 pointers : No
Read offset correction : 6
Overread into Lead-In and Lead-Out : No
Fill up missing offset samples with silence : Yes
Delete leading and trailing silent blocks : No
Null samples used in CRC calculations : Yes
Used interface : Installed external ASPI interface
Gap handling : Appended to previous track
Used output format : User Defined Encoder
Selected bitrate : 768 kBit/s
Quality : High
Add ID3 tag : No
Command line compressor : C:\Tool\Compress\FLAC\flac.exe
Additional command line options : -8 -V -T "ARTIST=%a" -T "TITLE=%t" -T "ALBUM=%g" -T "DATE=%y" -T "TRACKNUMBER=%n" -T "TOTALTRACKS=%x" -T "GENRE=%m" -T "ALBUM ARTIST=%v" -T "COMMENT=EAC V0.99 prebeta 5, Secure Mode, Test & Copy, AccurateRip, FLAC -8" %s
TOC of the extracted CD
Track | Start | Length | Start sector | End sector
---------------------------------------------------------
1 | 0:00.00 | 4:56.00 | 0 | 22199
2 | 4:56.00 | 4:25.33 | 22200 | 42107
3 | 9:21.33 | 3:38.41 | 42108 | 58498
4 | 12:59.74 | 3:01.21 | 58499 | 72094
5 | 16:01.20 | 3:18.41 | 72095 | 86985
6 | 19:19.61 | 5:40.51 | 86986 | 112536
7 | 25:00.37 | 4:40.53 | 112537 | 133589
8 | 29:41.15 | 6:01.00 | 133590 | 160664
9 | 35:42.15 | 4:36.00 | 160665 | 181364
10 | 40:18.15 | 6:48.25 | 181365 | 211989
Track 1
Filename C:\! UPLOAD\Apollo - Cap Inedit (1999) [FLAC]\01 - En Corede a linge ibere.wav
Pre-gap length 0:00:02.00
Peak level 100.0 %
Track quality 100.0 %
Test CRC EB9163F0
Copy CRC EB9163F0
Accurately ripped (confidence 1) [5A74E13E]
Copy OK
Track 2
Filename C:\! UPLOAD\Apollo - Cap Inedit (1999) [FLAC]\02 - Le Puisatier de Zubene genubi.wav
Pre-gap length 0:00:03.00
Peak level 100.0 %
Track quality 100.0 %
Test CRC 36B5B769
Copy CRC 36B5B769
Accurately ripped (confidence 1) [A29FD85F]
Copy OK
Track 3
Filename C:\! UPLOAD\Apollo - Cap Inedit (1999) [FLAC]\03 - Didti.wav
Pre-gap length 0:00:03.00
Peak level 100.0 %
Track quality 100.0 %
Test CRC E6A399A5
Copy CRC E6A399A5
Accurately ripped (confidence 1) [7E98E924]
Copy OK
Track 4
Filename C:\! UPLOAD\Apollo - Cap Inedit (1999) [FLAC]\04 - Le bransle des vieux - traditionnel.wav
Pre-gap length 0:00:03.00
Peak level 100.0 %
Track quality 100.0 %
Test CRC 7AD449F1
Copy CRC 7AD449F1
Accurately ripped (confidence 1) [24F844AB]
Copy OK
Track 5
Filename C:\! UPLOAD\Apollo - Cap Inedit (1999) [FLAC]\05 - Kindertotenlieder.wav
Pre-gap length 0:00:03.00
Peak level 100.0 %
Track quality 99.9 %
Test CRC CF3BE64F
Copy CRC CF3BE64F
Accurately ripped (confidence 1) [F3F2BC90]
Copy OK
Track 6
Filename C:\! UPLOAD\Apollo - Cap Inedit (1999) [FLAC]\06 - Bourree domestique.wav
Pre-gap length 0:00:03.00
Peak level 100.0 %
Track quality 99.9 %
Test CRC 2DEC193A
Copy CRC 2DEC193A
Accurately ripped (confidence 1) [BE0CC6F2]
Copy OK
Track 7
Filename C:\! UPLOAD\Apollo - Cap Inedit (1999) [FLAC]\07 - Dennier chant des hommes-poussiere.wav
Pre-gap length 0:00:03.00
Peak level 100.0 %
Track quality 100.0 %
Test CRC 3212CFAF
Copy CRC 3212CFAF
Accurately ripped (confidence 1) [B03E70B5]
Copy OK
Track 8
Filename C:\! UPLOAD\Apollo - Cap Inedit (1999) [FLAC]\08 - Kouguel.wav
Pre-gap length 0:00:03.00
Peak level 100.0 %
Track quality 100.0 %
Test CRC 5D3838AF
Copy CRC 5D3838AF
Accurately ripped (confidence 1) [AAE67D6A]
Copy OK
Track 9
Filename C:\! UPLOAD\Apollo - Cap Inedit (1999) [FLAC]\09 - Jacaranda.wav
Pre-gap length 0:00:03.00
Peak level 100.0 %
Track quality 100.0 %
Test CRC A108C15A
Copy CRC A108C15A
Accurately ripped (confidence 1) [9D96C58A]
Copy OK
Track 10
Filename C:\! UPLOAD\Apollo - Cap Inedit (1999) [FLAC]\10 - Mardi Trois.wav
Pre-gap length 0:00:03.00
Peak level 100.0 %
Track quality 100.0 %
Test CRC 2EE6D91F
Copy CRC 2EE6D91F
Accurately ripped (confidence 1) [39C8D7B0]
Copy OK
All tracks accurately ripped
No errors occurred
End of status report
 
Содержание индексной карты (.CUE)
REM GENRE Jazz
REM DATE 1999
REM DISCID 7C0B0A0A
REM COMMENT "ExactAudioCopy v0.99pb5"
PERFORMER "Apollo"
TITLE "Cap Inedit"
FILE "01 - En Corede a linge ibere.wav" WAVE
TRACK 01 AUDIO
TITLE "En Corede a linge ibere"
PERFORMER "Apollo"
INDEX 01 00:00:00
TRACK 02 AUDIO
TITLE "Le Puisatier de Zubene genubi"
PERFORMER "Apollo"
INDEX 00 04:53:00
FILE "02 - Le Puisatier de Zubene genubi.wav" WAVE
INDEX 01 00:00:00
TRACK 03 AUDIO
TITLE "Didti"
PERFORMER "Apollo"
INDEX 00 04:22:33
FILE "03 - Didti.wav" WAVE
INDEX 01 00:00:00
TRACK 04 AUDIO
TITLE "Le bransle des vieux - traditionnel"
PERFORMER "Apollo"
INDEX 00 03:35:41
FILE "04 - Le bransle des vieux - traditionnel.wav" WAVE
INDEX 01 00:00:00
TRACK 05 AUDIO
TITLE "Kindertotenlieder"
PERFORMER "Apollo"
INDEX 00 02:58:21
FILE "05 - Kindertotenlieder.wav" WAVE
INDEX 01 00:00:00
TRACK 06 AUDIO
TITLE "Bourree domestique"
PERFORMER "Apollo"
INDEX 00 03:15:41
FILE "06 - Bourree domestique.wav" WAVE
INDEX 01 00:00:00
TRACK 07 AUDIO
TITLE "Dennier chant des hommes-poussiere"
PERFORMER "Apollo"
INDEX 00 05:37:51
FILE "07 - Dennier chant des hommes-poussiere.wav" WAVE
INDEX 01 00:00:00
TRACK 08 AUDIO
TITLE "Kouguel"
PERFORMER "Apollo"
INDEX 00 04:37:53
FILE "08 - Kouguel.wav" WAVE
INDEX 01 00:00:00
TRACK 09 AUDIO
TITLE "Jacaranda"
PERFORMER "Apollo"
INDEX 00 05:58:00
FILE "09 - Jacaranda.wav" WAVE
INDEX 01 00:00:00
TRACK 10 AUDIO
TITLE "Mardi Trois"
PERFORMER "Apollo"
INDEX 00 04:33:00
FILE "10 - Mardi Trois.wav" WAVE
INDEX 01 00:00:00
Доп. информация:
Recorded February 8-12, 1999
 
Об исполнителе (группе)
This trio was formed in 1991 and its choice of music has not changed : you will still find a taste for melody and the acoustical dimension still takes priority. The instruments are played with a keen sense of improvisation and dynamic balance : yet they never forget their roots – as ARFI members, that goes without saying ! Since the very beginning, Apollo has always played with other musicians, without losing its own identity. On this new CD, Jean-Louis Matinier, Alfred Spirli and Jef Sicard, for improvised music, have all at some time joined the space capsule. The result in these original compositions, most of them by Alain Gibert is a whole new variety of unusual blends, as the regular brass come together with these three experienced improvisers. This recording launches Apollo in conquest of a whole new region of sonic space …
 
Об альбоме (сборнике)
Des nouvelles d’une nouvelle pousse de l’arbre Arfi ! Avec Apollo et son Cap Inédit (inédit, on s’en doute dès qu’il s’agit de l’Arfi et de ses expérimentateurs), Jean-Paul Autin (saxophone alto), Jean-Luc Cappozzo (trompette) et Alain Gibert (trombone) se mettent au défi de faire décoller leur vaisseau de souffleurs ! Effet réussi, avec l’aide ponctuelle de quelques mécaniciens de haut vol : Jean-Louis Matinier (accordéon, habituel collaborateur de Renaud Garcia-Fons), Jeff Sicard (saxophone baryton) et Alfred Spirli (percussions). On peut dire ici que l’on trouve des lignes mélodiques à trois et une ligue d’improvisation à tous ! On assiste, en effet, à une constante mise en balance entre les trois cuivres, qui s’offrent tous les dialogues, toutes les audaces, comme cette fabuleuse interprétation des Kindertotenlieder de Mahler revus et très corrigés par Alain Gibert… Les invités sont là comme un seul homme pour appuyer et soutenir le jeu de ces cosmonautes du son, en exploration sonore avancée.
 
Состав
Jean-Paul Autin - sax alto
Jean-Luc Cappozzo - trompette
Alain Gibert - trombone
Jean-Louis Matinier - accordéon (4, 10)
Jef Sicard - saxophone baryton (2, 5)
Alfred Spirli - percussions (7, 9)
Any questions -> support@pro-jazz.com. По всем вопросам пишите -> support@pro-jazz.com
10:14
194
Нет комментариев. Ваш будет первым!