Поиск

(Jazz, Chamber, Jewish, Tzadik) Davka - Judith - 1999, APE (image+.cue), lossless

Треклист:
Davka - Judith
Жанр: Jazz, Chamber, Jewish, Tzadik
Год выпуска диска: 1999
Производитель диска: USA
Лейбл: Tzadik (Radical Jewish Culture)
Аудио кодек: APE
Тип рипа: image+.cue
Битрейт аудио: lossless
Продолжительность: 58 min
Трэклист:
Judith
1. Yo Semite
2. Judith
3. Zhok / Von Der Khuppe
4. Doina
5. Jericho
6. Donna's Terkishe
7. Shnapps Vas Gibn
8. Rhino Rhapsody
9. On Edge
10. Hamsin
11. Istambullish
12. Ein Sof
13. Twilight Nigun
Доп. информация: Рип сделан с оригинального CD TZ7135... Картинки прилагаются...
Музыканты:
Daniel Hoffman - violin, double string violin
Peter Maund - percussion
Moses Sedler - cello
Специально приглашенные гости:
Stuart Brotman - bass, cymbalon
Sheldon Brown - B-flat clarinet, bass clarinet
 
EAC Log
Exact Audio Copy V0.99 prebeta 4 from 23. January 2008
EAC extraction logfile from 31. December 2008, 18:21
Davka / Judith
Used drive : TSSTcorpCD/DVDW SH-W162C Adapter: 0 ID: 0
Read mode : Secure
Utilize accurate stream : Yes
Defeat audio cache : Yes
Make use of C2 pointers : No
Read offset correction : 6
Overread into Lead-In and Lead-Out : No
Fill up missing offset samples with silence : Yes
Delete leading and trailing silent blocks : No
Null samples used in CRC calculations : Yes
Used interface : Installed external ASPI interface
Used output format : Internal WAV Routines
Sample format : 44.100 Hz; 16 Bit; Stereo
TOC of the extracted CD
Track | Start | Length | Start sector | End sector
---------------------------------------------------------
1 | 0:00.00 | 3:41.60 | 0 | 16634
2 | 3:41.60 | 5:17.40 | 16635 | 40449
3 | 8:59.25 | 4:00.00 | 40450 | 58449
4 | 12:59.25 | 2:08.60 | 58450 | 68109
5 | 15:08.10 | 3:48.50 | 68110 | 85259
6 | 18:56.60 | 6:32.72 | 85260 | 114731
7 | 25:29.57 | 6:12.23 | 114732 | 142654
8 | 31:42.05 | 3:12.10 | 142655 | 157064
9 | 34:54.15 | 1:26.32 | 157065 | 163546
10 | 36:20.47 | 3:30.70 | 163547 | 179366
11 | 39:51.42 | 5:14.10 | 179367 | 202926
12 | 45:05.52 | 7:11.40 | 202927 | 235291
13 | 52:17.17 | 5:15.08 | 235292 | 258924
Range status and errors
Selected range
Filename C:\Davka (1999) Judith\Davka - Judith.wav
Peak level 95.1 %
Range quality 100.0 %
Copy CRC 1E6C617E
Copy OK
No errors occurred
End of status report
Мои раздачи
С Новым Годом, меломаны!
05:11
264
Нет комментариев. Ваш будет первым!