Поиск

(jazz) Cecil Taylor - Unit Structures, FLAC (tracks) lossless

(jazz) Cecil Taylor - Unit Structures, FLAC (tracks) lossless
Треклист:


Cecil Taylor - Unit Structures
Жанр: jazz
Год выпуска: 1963
Формат: FLAC (tracks)
Источник: ed2k

tracks:

1. Steps 10:20
2. Enter, Evening (Soft Line Structure) 11:06
3. Enter, Evening (Alternate Take) 10:11
4. Unit Structure/As Of A Now/Section 17:47
5. Tales (8 Whisps)


 
log
EAC extraction logfile from 19. December 2007, 19:50 for CD
Cecil Taylor / Unit Structures
Used drive : HL-DT-STDVDRAM GSA-4163B Adapter: 1 ID: 1
Read mode : Secure with NO C2, accurate stream, disable cache
Read offset correction : 667
Overread into Lead-In and Lead-Out : No
Used output format : Internal WAV Routines
44.100 Hz; 16 Bit; Stereo
Other options :
Fill up missing offset samples with silence : Yes
Delete leading and trailing silent blocks : No
Installed external ASPI interface
Track 1
Filename D:\Cecil Taylor - Unit Structures (1966)[FLAC]{Blue Note}\01 - Steps.wav
Pre-gap length 0:00:02.00
Peak level 90.0 %
Test CRC 76A90E53
Copy CRC 76A90E53
Copy OK
Track 2
Filename D:\Cecil Taylor - Unit Structures (1966)[FLAC]{Blue Note}\02 - Enter, Evening (Soft Line Structure).wav
Pre-gap length 0:00:01.67
Peak level 69.6 %
Test CRC F15B7754
Copy CRC F15B7754
Copy OK
Track 3
Filename D:\Cecil Taylor - Unit Structures (1966)[FLAC]{Blue Note}\03 - Enter, Evening (alternate take).wav
Pre-gap length 0:00:02.24
Peak level 71.0 %
Test CRC 1825D36F
Copy CRC 1825D36F
Copy OK
Track 4
Filename D:\Cecil Taylor - Unit Structures (1966)[FLAC]{Blue Note}\04 - Unit Structure,As of a Now,Section.wav
Pre-gap length 0:00:02.20
Peak level 93.3 %
Test CRC F73A6641
Copy CRC F73A6641
Copy OK
Track 5
Filename D:\Cecil Taylor - Unit Structures (1966)[FLAC]{Blue Note}\05 - Tales (8 Whisps).wav
Pre-gap length 0:00:01.45
Peak level 71.1 %
Test CRC 160A1BAD
Copy CRC 160A1BAD
Copy OK
No errors occured
End of status report
другие релизы
Приватный:
Нет (DHT включён)
Размер:
303.06 Мб (317,778,274 байт) » файлов: 14
Участники:
0 раздают, 0 качают (0 участников всего)
Внешние участники:
3 раздают, 1 качают (4 участников всего) [ Обновить ]
Есть вопросы - пишите личное сообщение пользователю M0p94ok.
23:50
56
Нет комментариев. Ваш будет первым!