Поиск

(Jazz) [CD] Anouar Brahem - Le pas du chat noir - 2002, FLAC (image+.cue), lossless

(Jazz) [CD] Anouar Brahem - Le pas du chat noir - 2002, FLAC (image+.cue), lossless
Треклист:
Anouar Brahem / Le pas du chat noir
Жанр: Jazz
Носитель: CD
Страна-производитель диска (релиза): Россия
Год издания: 2002
Издатель (лейбл): ECM
Страна исполнителя (группы): Тунис
Аудиокодек: FLAC (*.flac)
Тип рипа: image+.cue
Битрейт аудио: lossless
Продолжительность: 1:10:36
Источник (релизер): blacklion
Наличие сканов в содержимом раздачи: да
Треклист:
  1. Le Pas du Chat Noir - 7:51
  2. De Tout Ton Cœur - 7:38
  3. Leila au Pays du Carrousel - 6:33
  4. Pique-nique à Nagpur - 4:11
  5. C'est Ailleurs - 8:02
  6. Toi qui Sait - 5:56
  7. L'arbre qui Voit - 6:07
  8. Un Point Bleu - 1:44
  9. Les Ailes du Bourak - 4:52
  10. Rue du Départ - 6:00
  11. Leila au Pays du Carrousel (Variation) - 5:36
  12. Déjà la Nuit - 5:1
 
Лог создания рипа
Exact Audio Copy V1.1 from 23. June 2015
EAC extraction logfile from 14. February 2016, 16:43
Anouar Brahem / Le pas du chat noir
Used drive : Optiarc DVD RW AD-7200S Adapter: 1 ID: 0
Read mode : Secure
Utilize accurate stream : Yes
Defeat audio cache : Yes
Make use of C2 pointers : No
Read offset correction : 48
Overread into Lead-In and Lead-Out : No
Fill up missing offset samples with silence : Yes
Delete leading and trailing silent blocks : No
Null samples used in CRC calculations : Yes
Used interface : Native Win32 interface for Win NT & 2000
Used output format : Internal WAV Routines
Sample format : 44.100 Hz; 16 Bit; Stereo
TOC of the extracted CD
Track | Start | Length | Start sector | End sector
---------------------------------------------------------
1 | 0:00.20 | 8:01.38 | 20 | 36132
2 | 8:01.58 | 7:41.02 | 36133 | 70709
3 | 15:42.60 | 6:37.00 | 70710 | 100484
4 | 22:19.60 | 4:13.58 | 100485 | 119517
5 | 26:33.43 | 8:04.66 | 119518 | 155883
6 | 34:38.34 | 6:03.24 | 155884 | 183132
7 | 40:41.58 | 6:13.14 | 183133 | 211121
8 | 46:54.72 | 1:52.07 | 211122 | 219528
9 | 48:47.04 | 4:54.13 | 219529 | 241591
10 | 53:41.17 | 6:05.35 | 241592 | 269001
11 | 59:46.52 | 5:39.55 | 269002 | 294481
12 | 65:26.32 | 5:10.15 | 294482 | 317746
Range status and errors
Selected range
Filename D:\grab\my\Anouar Brahem\2002 - Le pas du chat noir\Anouar Brahem - 2002 - Le pas du chat noir.wav
Peak level 98.9 %
Extraction speed 4.1 X
Range quality 100.0 %
Test CRC B11D1173
Copy CRC B11D1173
Copy OK
No errors occurred
AccurateRip summary
Track 1 accurately ripped (confidence 2) [12CB1455] (AR v1)
Track 2 accurately ripped (confidence 2) [38EFF98E] (AR v1)
Track 3 accurately ripped (confidence 2) [33BD6BE9] (AR v1)
Track 4 accurately ripped (confidence 2) [4D17BC20] (AR v1)
Track 5 accurately ripped (confidence 2) [1661D026] (AR v1)
Track 6 accurately ripped (confidence 2) [F64786E3] (AR v1)
Track 7 accurately ripped (confidence 2) [315A469E] (AR v1)
Track 8 accurately ripped (confidence 2) [031A064F] (AR v1)
Track 9 accurately ripped (confidence 2) [390ABAD5] (AR v1)
Track 10 accurately ripped (confidence 2) [43806280] (AR v1)
Track 11 accurately ripped (confidence 2) [0B63E90B] (AR v1)
Track 12 accurately ripped (confidence 2) [1A038C45] (AR v1)
All tracks accurately ripped
End of status report
---- CUETools DB Plugin V2.1.6
[CTDB TOCID: qUvFJiai0gQJGhfwW6blnkxZovI-] found
Submit result: qUvFJiai0gQJGhfwW6blnkxZovI- has been confirmed
Track | CTDB Status
1 | (95/99) Accurately ripped
2 | (95/99) Accurately ripped, or (1/99) differs in 359 samples @00:48:24,04:25:48-04:25:49,04:26:25-04:26:26,04:50:44
3 | (97/99) Accurately ripped
4 | (97/99) Accurately ripped
5 | (96/99) Accurately ripped
6 | (96/99) Accurately ripped
7 | (97/99) Accurately ripped
8 | (98/99) Accurately ripped
9 | (97/99) Accurately ripped
10 | (97/99) Accurately ripped
11 | (96/99) Accurately ripped, or (1/99) differs in 12 samples @05:35:05,05:35:30
12 | (95/99) Accurately ripped
==== Log checksum 4E3B1D5FA90A57C8185F791B624046E27AD170DCEFB0136E7516BCDC01DDC818 ====
 
Состав
Anouar Brahem - oud
François Couturier - piano
Jean Louis Matinier - accordion
FLAC файл самодостаточен, всё нужное внутри. Но ради правил оформления CUE и картинка добавлены и отдельными файлами тоже.
20:46
296
Нет комментариев. Ваш будет первым!