Вы используете незарегистрированную версию компонента "Вкладки"!

Поиск

(Jazz) [CD] Annette Hanshaw - Vocal Refrain by Annette Hanshaw 1927 - 1930 - 2013, FLAC (tracks+.cue), lossless

(Jazz) [CD] Annette Hanshaw - Vocal Refrain by Annette Hanshaw 1927 - 1930 - 2013, FLAC (tracks+.cue), lossless
Треклист:
Vocal Refrain by Annette Hanshaw 1927 - 1930

Жанр: Jazz
Носитель: CD
Страна-производитель диска (релиза): Austria
Год издания: 2013
Издатель (лейбл): Retrieval
Номер по каталогу: RTR 79073
Страна исполнителя (группы): USA
Аудиокодек: FLAC (*.flac)
Тип рипа: tracks+.cue
Битрейт аудио: lossless
Продолжительность: 01:08:57
Источник (релизер): Сеть
Наличие сканов в содержимом раздачи: да
 
Треклист
Wistful And Blue
What Do I Care What Somebody Said?
Nothin'
I'm Somebody's Somebody Now
I Like What You Like
Mary (What Are You Waiting For?)
What'll You Do?
Plenty Of Sunshine
Who Give You All Your Kisses
After My Laughter Came Tears
You Gotta Be Good To Me
In The Sing Song Sycamore Tree
(I'm Cryin' 'Cause I Know) I'm Losing You
I Love My Old Fashioned Man
There Ain't No Sweet Man
Speedy Boy
The Japanese Sandman
Smiles
When I Am Housekeeping For You
I Have To Have You
Ain'tcha?
Cooking Breakfast For The One I Love
When A Woman Loves A Man
Cooking Breakfast For The One I Love
 
Лог создания рипа
Exact Audio Copy V1.0 beta 4 from 7. December 2014
EAC extraction logfile from 17. April 2015, 11:01
Annette Hanshaw / Vocal Refrain By Annette Hanshaw (1927-1930)
Used drive : HL-DT-STDVD+-RW GH82N Adapter: 1 ID: 0
Read mode : Secure
Utilize accurate stream : Yes
Defeat audio cache : Yes
Make use of C2 pointers : No
Read offset correction : 667
Overread into Lead-In and Lead-Out : No
Fill up missing offset samples with silence : Yes
Delete leading and trailing silent blocks : No
Null samples used in CRC calculations : Yes
Used interface : Native Win32 interface for Win NT & 2000
Gap handling : Appended to previous track
Used output format : User Defined Encoder
Selected bitrate : 1024 kBit/s
Quality : High
Add ID3 tag : No
Command line compressor : C:\Program Files (x86)\Exact Audio Copy\FLAC\FLAC.EXE
Additional command line options : -6 -V -T "ARTIST=%artist%" -T "TITLE=%title%" -T "ALBUM=%albumtitle%" -T "DATE=%year%" -T "TRACKNUMBER=%tracknr%" -T "GENRE=%genre%" -T "COMMENT=%comment%" -T "BAND=%albuminterpret%" -T "ALBUMARTIST=%albuminterpret%" -T "COMPOSER=%composer%" %haslyrics%--tag-from-file=LYRICS="%lyricsfile%"%haslyrics% -T "DISCNUMBER=%cdnumber%" -T "TOTALDISCS=%totalcds%" -T "TOTALTRACKS=%numtracks%" %hascover%--picture="%coverfile%"%hascover% %source% -o %dest%
TOC of the extracted CD
Track | Start | Length | Start sector | End sector
---------------------------------------------------------
1 | 0:00.00 | 2:57.60 | 0 | 13334
2 | 2:57.60 | 2:43.17 | 13335 | 25576
3 | 5:41.02 | 2:33.03 | 25577 | 37054
4 | 8:14.05 | 3:06.67 | 37055 | 51071
5 | 11:20.72 | 2:55.42 | 51072 | 64238
6 | 14:16.39 | 2:54.47 | 64239 | 77335
7 | 17:11.11 | 2:39.65 | 77336 | 89325
8 | 19:51.01 | 2:35.21 | 89326 | 100971
9 | 22:26.22 | 2:49.15 | 100972 | 113661
10 | 25:15.37 | 2:54.35 | 113662 | 126746
11 | 28:09.72 | 2:46.62 | 126747 | 139258
12 | 30:56.59 | 2:39.16 | 139259 | 151199
13 | 33:36.00 | 2:50.23 | 151200 | 163972
14 | 36:26.23 | 3:00.10 | 163973 | 177482
15 | 39:26.33 | 2:53.42 | 177483 | 190499
16 | 42:20.00 | 2:34.09 | 190500 | 202058
17 | 44:54.09 | 2:36.56 | 202059 | 213814
18 | 47:30.65 | 2:55.61 | 213815 | 227000
19 | 50:26.51 | 3:01.41 | 227001 | 240616
20 | 53:28.17 | 2:57.46 | 240617 | 253937
21 | 56:25.63 | 3:04.59 | 253938 | 267796
22 | 59:30.47 | 2:59.05 | 267797 | 281226
23 | 62:29.52 | 3:08.50 | 281227 | 295376
24 | 65:38.27 | 3:16.64 | 295377 | 310140
Track 1
Filename C:\Rips\Annette Hanshaw - Vocal Refrain By Annette Hanshaw\01 Wistful And Blue.wav
Pre-gap length 0:00:02.00
Peak level 79.4 %
Extraction speed 1.7 X
Track quality 100.0 %
Copy CRC BEA82C29
Track not present in AccurateRip database
Copy OK
Track 2
Filename C:\Rips\Annette Hanshaw - Vocal Refrain By Annette Hanshaw\02 What Do I Care What Somebody Said.wav
Pre-gap length 0:00:03.00
Peak level 79.4 %
Extraction speed 1.8 X
Track quality 100.0 %
Copy CRC E119788A
Track not present in AccurateRip database
Copy OK
Track 3
Filename C:\Rips\Annette Hanshaw - Vocal Refrain By Annette Hanshaw\03 Nothin'.wav
Pre-gap length 0:00:03.00
Peak level 96.6 %
Extraction speed 1.6 X
Track quality 99.9 %
Copy CRC E0EC84BD
Track not present in AccurateRip database
Copy OK
Track 4
Filename C:\Rips\Annette Hanshaw - Vocal Refrain By Annette Hanshaw\04 I'm Somebody's Somebody Now.wav
Pre-gap length 0:00:03.00
Peak level 79.4 %
Extraction speed 1.8 X
Track quality 99.9 %
Copy CRC 07D9F956
Track not present in AccurateRip database
Copy OK
Track 5
Filename C:\Rips\Annette Hanshaw - Vocal Refrain By Annette Hanshaw\05 I Like What You Like.wav
Pre-gap length 0:00:03.00
Peak level 79.4 %
Extraction speed 2.2 X
Track quality 100.0 %
Copy CRC 59DBF8DD
Track not present in AccurateRip database
Copy OK
Track 6
Filename C:\Rips\Annette Hanshaw - Vocal Refrain By Annette Hanshaw\06 Mary (What Are You Waiting For).wav
Pre-gap length 0:00:03.00
Peak level 70.7 %
Extraction speed 1.9 X
Track quality 99.9 %
Copy CRC AEDCC4DB
Track not present in AccurateRip database
Copy OK
Track 7
Filename C:\Rips\Annette Hanshaw - Vocal Refrain By Annette Hanshaw\07 What'll You Do.wav
Pre-gap length 0:00:03.00
Peak level 89.1 %
Extraction speed 2.3 X
Track quality 100.0 %
Copy CRC C356035B
Track not present in AccurateRip database
Copy OK
Track 8
Filename C:\Rips\Annette Hanshaw - Vocal Refrain By Annette Hanshaw\08 Plenty Of Sunshine.wav
Pre-gap length 0:00:03.00
Peak level 84.1 %
Extraction speed 2.4 X
Track quality 100.0 %
Copy CRC 85BF8F0D
Track not present in AccurateRip database
Copy OK
Track 9
Filename C:\Rips\Annette Hanshaw - Vocal Refrain By Annette Hanshaw\09 Who Give You All Your Kisses.wav
Pre-gap length 0:00:03.00
Peak level 79.4 %
Extraction speed 2.5 X
Track quality 100.0 %
Copy CRC E32C3D2B
Track not present in AccurateRip database
Copy OK
Track 10
Filename C:\Rips\Annette Hanshaw - Vocal Refrain By Annette Hanshaw\10 After My Laughter Came Tears.wav
Pre-gap length 0:00:03.00
Peak level 79.4 %
Extraction speed 2.6 X
Track quality 100.0 %
Copy CRC C6667099
Track not present in AccurateRip database
Copy OK
Track 11
Filename C:\Rips\Annette Hanshaw - Vocal Refrain By Annette Hanshaw\11 You Gotta Be Good To Me.wav
Pre-gap length 0:00:03.00
Peak level 63.7 %
Extraction speed 2.7 X
Track quality 100.0 %
Copy CRC CDF203EE
Track not present in AccurateRip database
Copy OK
Track 12
Filename C:\Rips\Annette Hanshaw - Vocal Refrain By Annette Hanshaw\12 In The Sing Song Sycamore Tree.wav
Pre-gap length 0:00:03.00
Peak level 84.7 %
Extraction speed 2.7 X
Track quality 100.0 %
Copy CRC A53CA899
Track not present in AccurateRip database
Copy OK
Track 13
Filename C:\Rips\Annette Hanshaw - Vocal Refrain By Annette Hanshaw\13 (I'm Cryin' 'Cause I Know) I'm Losing You.wav
Pre-gap length 0:00:03.00
Peak level 70.7 %
Extraction speed 2.4 X
Track quality 99.9 %
Copy CRC B5B20BE9
Track not present in AccurateRip database
Copy OK
Track 14
Filename C:\Rips\Annette Hanshaw - Vocal Refrain By Annette Hanshaw\14 I Love My Old Fashioned Man.wav
Pre-gap length 0:00:03.00
Peak level 74.9 %
Extraction speed 2.9 X
Track quality 100.0 %
Copy CRC 9A61CB16
Track not present in AccurateRip database
Copy OK
Track 15
Filename C:\Rips\Annette Hanshaw - Vocal Refrain By Annette Hanshaw\15 There Ain't No Sweet Man.wav
Pre-gap length 0:00:03.00
Peak level 74.8 %
Extraction speed 3.0 X
Track quality 100.0 %
Copy CRC F2F6CDF3
Track not present in AccurateRip database
Copy OK
Track 16
Filename C:\Rips\Annette Hanshaw - Vocal Refrain By Annette Hanshaw\16 Speedy Boy.wav
Pre-gap length 0:00:03.00
Peak level 74.9 %
Extraction speed 3.1 X
Track quality 100.0 %
Copy CRC 43269322
Track not present in AccurateRip database
Copy OK
Track 17
Filename C:\Rips\Annette Hanshaw - Vocal Refrain By Annette Hanshaw\17 The Japanese Sandman.wav
Pre-gap length 0:00:03.00
Peak level 84.1 %
Extraction speed 3.2 X
Track quality 100.0 %
Copy CRC B9E9668B
Track not present in AccurateRip database
Copy OK
Track 18
Filename C:\Rips\Annette Hanshaw - Vocal Refrain By Annette Hanshaw\18 Smiles.wav
Pre-gap length 0:00:03.00
Peak level 74.9 %
Extraction speed 3.2 X
Track quality 100.0 %
Copy CRC E3471797
Track not present in AccurateRip database
Copy OK
Track 19
Filename C:\Rips\Annette Hanshaw - Vocal Refrain By Annette Hanshaw\19 When I Am Housekeeping For You.wav
Pre-gap length 0:00:03.00
Peak level 84.1 %
Extraction speed 3.3 X
Track quality 100.0 %
Copy CRC 37268B01
Track not present in AccurateRip database
Copy OK
Track 20
Filename C:\Rips\Annette Hanshaw - Vocal Refrain By Annette Hanshaw\20 I Have To Have You.wav
Pre-gap length 0:00:03.00
Peak level 81.4 %
Extraction speed 2.9 X
Track quality 99.9 %
Copy CRC 7F57EBCB
Track not present in AccurateRip database
Copy OK
Track 21
Filename C:\Rips\Annette Hanshaw - Vocal Refrain By Annette Hanshaw\21 Ain'tcha.wav
Pre-gap length 0:00:03.00
Peak level 95.5 %
Extraction speed 3.5 X
Track quality 100.0 %
Copy CRC 3C9660ED
Track not present in AccurateRip database
Copy OK
Track 22
Filename C:\Rips\Annette Hanshaw - Vocal Refrain By Annette Hanshaw\22 Cooking Breakfast For The One I Love.wav
Pre-gap length 0:00:03.00
Peak level 79.4 %
Extraction speed 3.6 X
Track quality 100.0 %
Copy CRC 47FF7A46
Track not present in AccurateRip database
Copy OK
Track 23
Filename C:\Rips\Annette Hanshaw - Vocal Refrain By Annette Hanshaw\23 When A Woman Loves A Man.wav
Pre-gap length 0:00:03.00
Peak level 71.3 %
Extraction speed 3.7 X
Track quality 100.0 %
Copy CRC 740DE463
Track not present in AccurateRip database
Copy OK
Track 24
Filename C:\Rips\Annette Hanshaw - Vocal Refrain By Annette Hanshaw\24 Cooking Breakfast For The One I Love.wav
Pre-gap length 0:00:03.00
Peak level 84.1 %
Extraction speed 3.8 X
Track quality 100.0 %
Copy CRC 1DFE831D
Track not present in AccurateRip database
Copy OK
None of the tracks are present in the AccurateRip database
No errors occurred
End of status report
---- CUETools DB Plugin V2.1.4
[CTDB TOCID: mH3zZ4zRBZQoTnvaLWERLhMABUY-] disk not present in database
Submit result: mH3zZ4zRBZQoTnvaLWERLhMABUY- has been uploaded
==== Log checksum 902EA412FF71E7EB9F85E31C7DB4950E60760914EA4AFB410E648E67BE495B9D ====
 
Содержание индексной карты (.CUE)
REM GENRE Jazz
REM DISCID 6F102718
REM COMMENT "ExactAudioCopy v1.0b4"
PERFORMER "Annette Hanshaw"
TITLE "Vocal Refrain By Annette Hanshaw (1927-1930)"
FILE "01 Wistful And Blue.wav" WAVE
TRACK 01 AUDIO
TITLE "Wistful And Blue"
PERFORMER "The Original Memphis Five"
ISRC NLB151300192
INDEX 01 00:00:00
TRACK 02 AUDIO
TITLE "What Do I Care What Somebody Said?"
PERFORMER "The Original Memphis Five"
ISRC NLB151300193
INDEX 00 02:54:60
FILE "02 What Do I Care What Somebody Said.wav" WAVE
INDEX 01 00:00:00
TRACK 03 AUDIO
TITLE "Nothin'"
PERFORMER "The Original Memphis Five"
ISRC NLB151300194
INDEX 00 02:40:17
FILE "03 Nothin'.wav" WAVE
INDEX 01 00:00:00
TRACK 04 AUDIO
TITLE "I'm Somebody's Somebody Now"
PERFORMER "Four Instrumental Stars"
ISRC NLB151300195
INDEX 00 02:30:03
FILE "04 I'm Somebody's Somebody Now.wav" WAVE
INDEX 01 00:00:00
TRACK 05 AUDIO
TITLE "I Like What You Like"
PERFORMER "Four Instrumental Stars"
ISRC NLB151300196
INDEX 00 03:03:67
FILE "05 I Like What You Like.wav" WAVE
INDEX 01 00:00:00
TRACK 06 AUDIO
TITLE "Mary (What Are You Waiting For?)"
PERFORMER "Lou Gold And His Orchestra"
ISRC NLB151300197
INDEX 00 02:52:42
FILE "06 Mary (What Are You Waiting For).wav" WAVE
INDEX 01 00:00:00
TRACK 07 AUDIO
TITLE "What'll You Do?"
PERFORMER "Lou Gold And His Orchestra"
ISRC NLB151300198
INDEX 00 02:51:47
FILE "07 What'll You Do.wav" WAVE
INDEX 01 00:00:00
TRACK 08 AUDIO
TITLE "Plenty Of Sunshine"
PERFORMER "Lou Gold And His Orchestra"
ISRC NLB151300199
INDEX 00 02:36:65
FILE "08 Plenty Of Sunshine.wav" WAVE
INDEX 01 00:00:00
TRACK 09 AUDIO
TITLE "Who Give You All Your Kisses"
PERFORMER "Lou Gold And His Orchestra"
ISRC NLB151300200
INDEX 00 02:32:21
FILE "09 Who Give You All Your Kisses.wav" WAVE
INDEX 01 00:00:00
TRACK 10 AUDIO
TITLE "After My Laughter Came Tears"
PERFORMER "Lou Gold And His Orchestra"
ISRC NLB151300201
INDEX 00 02:46:15
FILE "10 After My Laughter Came Tears.wav" WAVE
INDEX 01 00:00:00
TRACK 11 AUDIO
TITLE "You Gotta Be Good To Me"
PERFORMER "Lou Gold And His Orchestra"
ISRC NLB151300202
INDEX 00 02:51:35
FILE "11 You Gotta Be Good To Me.wav" WAVE
INDEX 01 00:00:00
TRACK 12 AUDIO
TITLE "In The Sing Song Sycamore Tree"
PERFORMER "Lou Gold And His Orchestra"
ISRC NLB151300203
INDEX 00 02:43:62
FILE "12 In The Sing Song Sycamore Tree.wav" WAVE
INDEX 01 00:00:00
TRACK 13 AUDIO
TITLE "(I'm Cryin' 'Cause I Know) I'm Losing You"
PERFORMER "Lou Gold And His Orchestra"
ISRC NLB151300204
INDEX 00 02:36:16
FILE "13 (I'm Cryin' 'Cause I Know) I'm Losing You.wav" WAVE
INDEX 01 00:00:00
TRACK 14 AUDIO
TITLE "I Love My Old Fashioned Man"
PERFORMER "Willard Robison And His Deep River Orchestra"
ISRC NLB151300205
INDEX 00 02:47:23
FILE "14 I Love My Old Fashioned Man.wav" WAVE
INDEX 01 00:00:00
TRACK 15 AUDIO
TITLE "There Ain't No Sweet Man"
PERFORMER "Willard Robison And His Deep River Orchestra"
ISRC NLB151300206
INDEX 00 02:57:10
FILE "15 There Ain't No Sweet Man.wav" WAVE
INDEX 01 00:00:00
TRACK 16 AUDIO
TITLE "Speedy Boy"
PERFORMER "Willard Robison And His Deep River Orchestra"
ISRC NLB151300207
INDEX 00 02:50:42
FILE "16 Speedy Boy.wav" WAVE
INDEX 01 00:00:00
TRACK 17 AUDIO
TITLE "The Japanese Sandman"
PERFORMER "Willard Robison And His Deep River Orchestra"
ISRC NLB151300208
INDEX 00 02:31:09
FILE "17 The Japanese Sandman.wav" WAVE
INDEX 01 00:00:00
TRACK 18 AUDIO
TITLE "Smiles"
PERFORMER "Willard Robison And His Deep River Orchestra"
ISRC NLB151300209
INDEX 00 02:33:56
FILE "18 Smiles.wav" WAVE
INDEX 01 00:00:00
TRACK 19 AUDIO
TITLE "When I Am Housekeeping For You"
PERFORMER "Ben Selvin And His Orchestra"
ISRC NLB151300210
INDEX 00 02:52:61
FILE "19 When I Am Housekeeping For You.wav" WAVE
INDEX 01 00:00:00
TRACK 20 AUDIO
TITLE "I Have To Have You"
PERFORMER "Ben Selvin And His Orchestra"
ISRC NLB151300211
INDEX 00 02:58:41
FILE "20 I Have To Have You.wav" WAVE
INDEX 01 00:00:00
TRACK 21 AUDIO
TITLE "Ain'tcha?"
PERFORMER "Ben Selvin And His Orchestra"
ISRC NLB151300212
INDEX 00 02:54:46
FILE "21 Ain'tcha.wav" WAVE
INDEX 01 00:00:00
TRACK 22 AUDIO
TITLE "Cooking Breakfast For The One I Love"
PERFORMER "Jack Albin & His Hotel Pennsylvania Music"
ISRC NLB151300213
INDEX 00 03:01:59
FILE "22 Cooking Breakfast For The One I Love.wav" WAVE
INDEX 01 00:00:00
TRACK 23 AUDIO
TITLE "When A Woman Loves A Man"
PERFORMER "Jack Albin & His Hotel Pennsylvania Music"
ISRC NLB151300214
INDEX 00 02:56:05
FILE "23 When A Woman Loves A Man.wav" WAVE
INDEX 01 00:00:00
TRACK 24 AUDIO
TITLE "Cooking Breakfast For The One I Love"
PERFORMER "Sam Lanin's Famous Players And Singers"
ISRC NLB151300215
INDEX 00 03:05:50
FILE "24 Cooking Breakfast For The One I Love.wav" WAVE
INDEX 01 00:00:00
[/pre]
 
Лог проверки качества
-----------------------
DON'T MODIFY THIS FILE
-----------------------
PERFORMER: auCDtect Task Manager, ver. 1.6.0 RC1 build 1.6.0.1
Copyright (c) 2008-2010 y-soft. All rights reserved
http://y-soft.org
ANALYZER: auCDtect: CD records authenticity detector, version 0.8.2
Copyright (c) 2004 Oleg Berngardt. All rights reserved.
Copyright (c) 2004 Alexander Djourik. All rights reserved.
FILE: 24 Cooking Breakfast For The One I Love.flac
Size: 7834812 Hash: 522CF6DD4E28D36221A8E5F76FC371F0 Accuracy: -m0
Conclusion: CDDA 100%
Signature: F2F41244B221525B31E854E84BA5CA3861C47518
FILE: 23 When A Woman Loves A Man.flac
Size: 5920784 Hash: 6BED2EFAEA5D0FC4E0A2E7FA88152628 Accuracy: -m0
Conclusion: CDDA 86%
Signature: 7962FA723FC102BA731A8BE8A01DA8B42A130639
FILE: 22 Cooking Breakfast For The One I Love.flac
Size: 8380285 Hash: 5EA41F6ED4D989E048F636689F1CDD84 Accuracy: -m0
Conclusion: CDDA 100%
Signature: 875996D9CEC356C8A468A190886A99FD9989B4A6
FILE: 21 Ain'tcha.flac
Size: 8513370 Hash: 40ECE201E12E2AAB882720D4653241C2 Accuracy: -m0
Conclusion: CDDA 100%
Signature: 7AD96154506BAA14F7C1245F74722482B01310FC
FILE: 20 I Have To Have You.flac
Size: 8028341 Hash: 5A0554916BD6B5721672ED32936565A2 Accuracy: -m0
Conclusion: CDDA 100%
Signature: 91E118C14EC4866AF0710660D36EB0C3716C7374
FILE: 19 When I Am Housekeeping For You.flac
Size: 8223399 Hash: 81F9444BDE5125B74C279F785C627186 Accuracy: -m0
Conclusion: CDDA 100%
Signature: AD8DF43C51EB8D0D74A27A229E6C589DFEC3EAFF
FILE: 18 Smiles.flac
Size: 9063229 Hash: 334CA91085A4F3D37664D2A243EEA5F1 Accuracy: -m0
Conclusion: CDDA 100%
Signature: 6A57E04595FF83A9B6092FF71A280EE8A3FB4612
FILE: 17 The Japanese Sandman.flac
Size: 8446208 Hash: 517170EF40CB559D960AB2C8A86B52BE Accuracy: -m0
Conclusion: CDDA 100%
Signature: 982C8326CACEE72A933D8FABD570F922C455FCE4
FILE: 16 Speedy Boy.flac
Size: 7645913 Hash: 804545912CFCEA76DCB84FBFB7641FCD Accuracy: -m0
Conclusion: CDDA 100%
Signature: C59C8F750DB0D9D2A3450A7B6F7E4321548B97DE
FILE: 15 There Ain't No Sweet Man.flac
Size: 8785951 Hash: 3B2AC5A9AB89D6A5C0A452301E53B9E4 Accuracy: -m0
Conclusion: CDDA 100%
Signature: 631CD2263037515FF5BCDB45EE8D6C0AC90903EA
FILE: 14 I Love My Old Fashioned Man.flac
Size: 8986195 Hash: BEC1F89F0434C08120A6EC0E839495F0 Accuracy: -m0
Conclusion: CDDA 100%
Signature: 1498413F1C86CFD4D4B3DAF4AD99BDBCA24CDCAC
FILE: 13 (I'm Cryin' 'Cause I Know) I'm Losing You.flac
Size: 8713810 Hash: 0FC7A3242EC649F37F61B849323905D8 Accuracy: -m0
Conclusion: CDDA 100%
Signature: 0D58B755D2BAA3C4DC2656EE43A04DE370BC64AE
FILE: 12 In The Sing Song Sycamore Tree.flac
Size: 5249915 Hash: 99AA46218F2F3AD3D4A111D0F4C96C5C Accuracy: -m0
Conclusion: CDDA 43%
Signature: 6F80A867A1E8A504D6B60450512EE1F0F87249B6
FILE: 11 You Gotta Be Good To Me.flac
Size: 7552514 Hash: 9D4C02FEB51459D97B9502344BBCBFA7 Accuracy: -m0
Conclusion: CDDA 100%
Signature: 1770E681D7B1AB2D6158ED74CE82109A1A15FF77
FILE: 10 After My Laughter Came Tears.flac
Size: 8953236 Hash: 9FCE63803E2381A8EA63DEC275993979 Accuracy: -m0
Conclusion: CDDA 100%
Signature: 20DCF3112C6A47CC03B824D65A4F0E45456031CA
FILE: 09 Who Give You All Your Kisses.flac
Size: 7693406 Hash: 878520BD640D8944DF794D7841E54662 Accuracy: -m0
Conclusion: CDDA 100%
Signature: 6FF05DCD1C4833AC1EF3AE18BAEA1E639F9F05EA
FILE: 08 Plenty Of Sunshine.flac
Size: 6809337 Hash: E895C1DE331999F46662FDC6F44854F8 Accuracy: -m0
Conclusion: CDDA 100%
Signature: 30B85C3567FC5936918DE60940A37755B762C276
FILE: 07 What'll You Do.flac
Size: 6975271 Hash: 53951529DEBF0AC557B718376A5BB694 Accuracy: -m0
Conclusion: CDDA 100%
Signature: 89B283040B62E28C4214FB73AB9E3172922B192F
FILE: 06 Mary (What Are You Waiting For).flac
Size: 7965745 Hash: E8CDBF75DF5EECDC2086E1BEA0BD1FE9 Accuracy: -m0
Conclusion: CDDA 100%
Signature: 2EDC59E2AD431724A9C9B374ACBFB1CFA983D02E
FILE: 05 I Like What You Like.flac
Size: 6992661 Hash: 87386FC74DA5BFBF61DB97A95085CCE6 Accuracy: -m0
Conclusion: CDDA 100%
Signature: EC7A4716C600D7FA43D4B04E8FA6E7B94C9BC730
FILE: 04 I'm Somebody's Somebody Now.flac
Size: 8033394 Hash: CB1461645B8B83B8479B73F081D5FADC Accuracy: -m0
Conclusion: CDDA 100%
Signature: 873191E22AED5D3D1531FB059D82C942CC8EF61E
FILE: 03 Nothin'.flac
Size: 6536068 Hash: 8313FE24E8FADD0953093FECDA397A27 Accuracy: -m0
Conclusion: CDDA 100%
Signature: B20C06CEFE6C438A443298D909837066FA43A0C2
FILE: 02 What Do I Care What Somebody Said.flac
Size: 7264548 Hash: 9BDBE262588B2B895972965E48BF8C7A Accuracy: -m0
Conclusion: CDDA 99%
Signature: A2C002C977CAE51D01F056CAACA8495DCE2876C2
FILE: 01 Wistful And Blue.flac
Size: 7618596 Hash: 36635760A54D61A4DE6B079AADEFF447 Accuracy: -m0
Conclusion: CDDA 99%
Signature: 45A1EC3548557E8ABB4A5B2A6AB80EDDC0BF7613
[/pre]
Any questions - support@pro-jazz.com. Есть вопросы - support@pro-jazz.com
21:51
319
Нет комментариев. Ваш будет первым!