Поиск

(Jazz, Brazilian Jazz, Bossa Nova) Sergio Mendes - Celebration - A Musical Journey (2CD) - 2011, FLAC (tracks+.cue), lossless

(Jazz, Brazilian Jazz, Bossa Nova) Sergio Mendes - Celebration - A Musical Journey (2CD) - 2011, FLAC (tracks+.cue), lossless
Sergio Mendes / Celebration - A Musical Journey (2CD)
Жанр: Jazz, Brazilian Jazz, Bossa Nova
Страна-производитель диска: Европейский союз
Год издания диска: 2011
Издатель (лейбл): Universal Music International Ltd.
Номер по каталогу: 0600753319017
Аудиокодек: FLAC (*.flac)
Тип рипа: tracks+.cue
Битрейт аудио: lossless
Продолжительность: 02:14:05
Источник (релизер): Собственный рип
Наличие сканов в содержимом раздачи: да
 
Треклист
 
Celebration - A Musical Journey (CD 1)
01. Outra Vez
02. Garota de Ipanema (feat. Bossa Rio)
03. So Danco Samba (feat. Sergio Mendes Trio)
04. Mais Que Nada (feat. Brazil '66)
05. Going Out of My Head (feat. Brazil '66)
06. Constant Rain (feat. Brazil '66)
07. Night and Day (feat. Brazil '66)
08. The Look of Love (feat. Brazil '66)
09. So Many Stars (feat. Brazil '66)
10. The Fool on the Hill (feat. Brazil '66)
11. Scarborough Fair (feat. Brazil '66)
12. (Sittin' On) The Dock of the Bay (feat. Brazil '66)
13. Pretty World (feat. Brazil '66)
14. Wichita Lineman (feat. Brazil '66)
15. Norwegian Wood (feat. Brazil '66)
16. Masquerade (feat. Brazil '66)
17. What the World Needs Now Is Love
18. Pais Tropical (feat. Brazil '66)
19. Viramundo
20. After Sunrise (feat. Brazil '77)
21. Promesa de Pescador (feat. Brazil '77)
 
Celebration - A Musical Journey (CD 2)
01. Never Gonna Let You Go
02. My Summer Love
03. The Sound of One Song
04. Kisses (feat. Gracinha Leporace)
05. Daylight (feat. Gracinha Leporace)
06. Sarara (Bring Me the Sunlight)
07. Cinnamon & Cove (Cravo E Canela)
08. Rio de Janerio
09. Holografico Olodum (feat. Gilberto Gil)
10. Mas Que Nada (feat. The Black Eyed Peas)
11. The Frog (feat. Q-Tip & Will. i. am)
12. Waters of March (feat. Ledisi)
13. Y Vamos Ya (feat. Juanes)
14. So Tinha De er Com Voce (feat. Gracinha Leporace)
15. Magalenha (feat. Carlinhos Brown)
16. The Fool On The Hill (feat. Siedah Garrett)
17. Chove Chuva (feat. Ivete Sangalo)
 
Лог создания рипа
 
Celebration - A Musical Journey (CD 1)
Exact Audio Copy V0.99 prebeta 5 from 4. May 2009
Отчёт EAC об извлечении, выполненном 4. июня 2011, 20:48
Sergio Mendes / Celebration - A Musical Journey (CD 1)
Дисковод: Optiarc DVD RW AD-7190A Adapter: 0 ID: 0
Режим чтения : Достоверность
Использование точного потока : Да
Отключение кэша аудио : Да
Использование указателей C2 : Нет
Коррекция смещения при чтении : 6
Способность читать области Lead-in и Lead-out : Нет
Заполнение пропущенных сэмплов тишиной : Да
Удаление блоков с тишиной в начале и конце : Нет
При вычислениях CRC использовались нулевые сэмплы : Да
Интерфейс : Встроенный Win32-интерфейс для Win NT/2000
Обработка зазоров : Добавлено к предыдущему треку
Выходной формат : Пользовательский кодировщик
Выбранный битрейт : 128 kBit/s
Качество : Высокий
Добавление ID3-тэга : Нет
Утилита сжатия : E:\Аудио\Exact Audio Copy\Flac\flac.exe
Дополнительные параметры : -8 -V -T "ARTIST=%a" -T "TITLE=%t" -T "ALBUM=%g" -T "DATE=%y" -T "TRACKNUMBER=%n" -T "GENRE=%m" -T "COMMENT=EAC FLAC -8" %s
TOC извлечённого CD
Трек | Старт | Длительность | Начальный сектор | Конечный сектор
---------------------------------------------------------------------
1 | 0:00.00 | 2:24.09 | 0 | 10808
2 | 2:24.09 | 3:15.23 | 10809 | 25456
3 | 5:39.32 | 3:09.52 | 25457 | 39683
4 | 8:49.09 | 2:39.66 | 39684 | 51674
5 | 11:29.00 | 3:05.28 | 51675 | 65577
6 | 14:34.28 | 3:15.71 | 65578 | 80273
7 | 17:50.24 | 3:07.11 | 80274 | 94309
8 | 20:57.35 | 2:44.32 | 94310 | 106641
9 | 23:41.67 | 4:29.12 | 106642 | 126828
10 | 28:11.04 | 3:14.43 | 126829 | 141421
11 | 31:25.47 | 3:20.46 | 141422 | 156467
12 | 34:46.18 | 3:12.26 | 156468 | 170893
13 | 37:58.44 | 3:21.58 | 170894 | 186026
14 | 41:20.27 | 2:48.69 | 186027 | 198695
15 | 44:09.21 | 3:51.26 | 198696 | 216046
16 | 48:00.47 | 3:31.09 | 216047 | 231880
17 | 51:31.56 | 2:16.03 | 231881 | 242083
18 | 53:47.59 | 2:46.10 | 242084 | 254543
19 | 56:33.69 | 3:05.33 | 254544 | 268451
20 | 59:39.27 | 3:29.09 | 268452 | 284135
21 | 63:08.36 | 3:33.47 | 284136 | 300157
Трек 1
Имя файла D:\Temp\Sergio Mendes\Celebration - A Musical Journey (CD 1)\01. Sergio Mendes – Outra Vez.wav
Длина предзазора 0:00:02.00
Пиковый уровень 85.2 %
Качество трека 99.9 %
CRC теста 7BE69A94
CRC копии 7BE69A94
Трек не обнаружен в базе AccurateRip
Копирование... OK
Трек 2
Имя файла D:\Temp\Sergio Mendes\Celebration - A Musical Journey (CD 1)\02. Sergio Mendes – Garota de Ipanema (feat. Bossa Rio).wav
Длина предзазора 0:00:02.00
Пиковый уровень 98.8 %
Качество трека 100.0 %
CRC теста 88BA8BD7
CRC копии 88BA8BD7
Трек не обнаружен в базе AccurateRip
Копирование... OK
Трек 3
Имя файла D:\Temp\Sergio Mendes\Celebration - A Musical Journey (CD 1)\03. Sergio Mendes – So Danco Samba (feat. Sergio Mendes Trio).wav
Длина предзазора 0:00:02.00
Пиковый уровень 86.7 %
Качество трека 100.0 %
CRC теста 93FC549F
CRC копии 93FC549F
Трек не обнаружен в базе AccurateRip
Копирование... OK
Трек 4
Имя файла D:\Temp\Sergio Mendes\Celebration - A Musical Journey (CD 1)\04. Sergio Mendes – Mais Que Nada (feat. Brazil '66).wav
Длина предзазора 0:00:02.00
Пиковый уровень 98.8 %
Качество трека 100.0 %
CRC теста 7469CA3F
CRC копии 7469CA3F
Трек не обнаружен в базе AccurateRip
Копирование... OK
Трек 5
Имя файла D:\Temp\Sergio Mendes\Celebration - A Musical Journey (CD 1)\05. Sergio Mendes – Going Out of My Head (feat. Brazil '66).wav
Длина предзазора 0:00:02.00
Пиковый уровень 98.8 %
Качество трека 100.0 %
CRC теста 384ADD51
CRC копии 384ADD51
Трек не обнаружен в базе AccurateRip
Копирование... OK
Трек 6
Имя файла D:\Temp\Sergio Mendes\Celebration - A Musical Journey (CD 1)\06. Sergio Mendes – Constant Rain (feat. Brazil '66).wav
Длина предзазора 0:00:02.00
Пиковый уровень 93.3 %
Качество трека 100.0 %
CRC теста 1ABE3478
CRC копии 1ABE3478
Трек не обнаружен в базе AccurateRip
Копирование... OK
Трек 7
Имя файла D:\Temp\Sergio Mendes\Celebration - A Musical Journey (CD 1)\07. Sergio Mendes – Night and Day (feat. Brazil '66).wav
Длина предзазора 0:00:02.00
Пиковый уровень 82.2 %
Качество трека 100.0 %
CRC теста 8952EB1E
CRC копии 8952EB1E
Трек не обнаружен в базе AccurateRip
Копирование... OK
Трек 8
Имя файла D:\Temp\Sergio Mendes\Celebration - A Musical Journey (CD 1)\08. Sergio Mendes – The Look of Love (feat. Brazil '66).wav
Длина предзазора 0:00:02.00
Пиковый уровень 95.8 %
Качество трека 100.0 %
CRC теста 4D6260B4
CRC копии 4D6260B4
Трек не обнаружен в базе AccurateRip
Копирование... OK
Трек 9
Имя файла D:\Temp\Sergio Mendes\Celebration - A Musical Journey (CD 1)\09. Sergio Mendes – So Many Stars (feat. Brazil '66).wav
Длина предзазора 0:00:02.00
Пиковый уровень 98.8 %
Качество трека 100.0 %
CRC теста 5FD61CF4
CRC копии 5FD61CF4
Трек не обнаружен в базе AccurateRip
Копирование... OK
Трек 10
Имя файла D:\Temp\Sergio Mendes\Celebration - A Musical Journey (CD 1)\10. Sergio Mendes – The Fool on the Hill (feat. Brazil '66).wav
Длина предзазора 0:00:02.00
Пиковый уровень 88.1 %
Качество трека 99.9 %
CRC теста D9B8C426
CRC копии D9B8C426
Трек не обнаружен в базе AccurateRip
Копирование... OK
Трек 11
Имя файла D:\Temp\Sergio Mendes\Celebration - A Musical Journey (CD 1)\11. Sergio Mendes – Scarborough Fair (feat. Brazil '66).wav
Длина предзазора 0:00:02.00
Пиковый уровень 87.1 %
Качество трека 100.0 %
CRC теста E07B1077
CRC копии E07B1077
Трек не обнаружен в базе AccurateRip
Копирование... OK
Трек 12
Имя файла D:\Temp\Sergio Mendes\Celebration - A Musical Journey (CD 1)\12. Sergio Mendes – (Sittin' On) The Dock of the Bay (feat. Brazil '66).wav
Длина предзазора 0:00:02.00
Пиковый уровень 87.1 %
Качество трека 100.0 %
CRC теста 3C84CB8F
CRC копии 3C84CB8F
Трек не обнаружен в базе AccurateRip
Копирование... OK
Трек 13
Имя файла D:\Temp\Sergio Mendes\Celebration - A Musical Journey (CD 1)\13. Sergio Mendes – Pretty World (feat. Brazil '66).wav
Длина предзазора 0:00:02.00
Пиковый уровень 87.1 %
Качество трека 100.0 %
CRC теста 673CED90
CRC копии 673CED90
Трек не обнаружен в базе AccurateRip
Копирование... OK
Трек 14
Имя файла D:\Temp\Sergio Mendes\Celebration - A Musical Journey (CD 1)\14. Sergio Mendes – Wichita Lineman (feat. Brazil '66).wav
Длина предзазора 0:00:02.00
Пиковый уровень 97.7 %
Качество трека 100.0 %
CRC теста BF96761F
CRC копии BF96761F
Трек не обнаружен в базе AccurateRip
Копирование... OK
Трек 15
Имя файла D:\Temp\Sergio Mendes\Celebration - A Musical Journey (CD 1)\15. Sergio Mendes – Norwegian Wood (feat. Brazil '66).wav
Длина предзазора 0:00:02.00
Пиковый уровень 90.9 %
Качество трека 100.0 %
CRC теста 167BCA4B
CRC копии 167BCA4B
Трек не обнаружен в базе AccurateRip
Копирование... OK
Трек 16
Имя файла D:\Temp\Sergio Mendes\Celebration - A Musical Journey (CD 1)\16. Sergio Mendes – Masquerade (feat. Brazil '66).wav
Длина предзазора 0:00:02.00
Пиковый уровень 89.8 %
Качество трека 100.0 %
CRC теста 0EFC3BE4
CRC копии 0EFC3BE4
Трек не обнаружен в базе AccurateRip
Копирование... OK
Трек 17
Имя файла D:\Temp\Sergio Mendes\Celebration - A Musical Journey (CD 1)\17. Sergio Mendes – What the World Needs Now Is Love.wav
Длина предзазора 0:00:02.00
Пиковый уровень 98.8 %
Качество трека 100.0 %
CRC теста 288F647F
CRC копии 288F647F
Трек не обнаружен в базе AccurateRip
Копирование... OK
Трек 18
Имя файла D:\Temp\Sergio Mendes\Celebration - A Musical Journey (CD 1)\18. Sergio Mendes – Pais Tropical (feat. Brazil '66).wav
Длина предзазора 0:00:02.00
Пиковый уровень 86.1 %
Качество трека 100.0 %
CRC теста B55B4701
CRC копии B55B4701
Трек не обнаружен в базе AccurateRip
Копирование... OK
Трек 19
Имя файла D:\Temp\Sergio Mendes\Celebration - A Musical Journey (CD 1)\19. Sergio Mendes – Viramundo.wav
Длина предзазора 0:00:02.00
Пиковый уровень 98.9 %
Качество трека 100.0 %
CRC теста 3290E73A
CRC копии 3290E73A
Трек не обнаружен в базе AccurateRip
Копирование... OK
Трек 20
Имя файла D:\Temp\Sergio Mendes\Celebration - A Musical Journey (CD 1)\20. Sergio Mendes – After Sunrise (feat. Brazil '77).wav
Длина предзазора 0:00:02.00
Пиковый уровень 94.4 %
Качество трека 100.0 %
CRC теста 4138F243
CRC копии 4138F243
Трек не обнаружен в базе AccurateRip
Копирование... OK
Трек 21
Имя файла D:\Temp\Sergio Mendes\Celebration - A Musical Journey (CD 1)\21. Sergio Mendes – Promesa de Pescador (feat. Brazil '77).wav
Длина предзазора 0:00:02.00
Пиковый уровень 93.3 %
Качество трека 100.0 %
CRC теста DEC1E165
CRC копии DEC1E165
Трек не обнаружен в базе AccurateRip
Копирование... OK
Ни одного трека нет в базе AccurateRip
Ошибок не произошло
Конец отчёта
 
Celebration - A Musical Journey (CD 2)
Exact Audio Copy V0.99 prebeta 5 from 4. May 2009
Отчёт EAC об извлечении, выполненном 4. июня 2011, 19:43
Sergio Mendes / Celebration - A Musical Journey (CD 2)
Дисковод: Optiarc DVD RW AD-7190A Adapter: 0 ID: 0
Режим чтения : Достоверность
Использование точного потока : Да
Отключение кэша аудио : Да
Использование указателей C2 : Нет
Коррекция смещения при чтении : 6
Способность читать области Lead-in и Lead-out : Нет
Заполнение пропущенных сэмплов тишиной : Да
Удаление блоков с тишиной в начале и конце : Нет
При вычислениях CRC использовались нулевые сэмплы : Да
Интерфейс : Встроенный Win32-интерфейс для Win NT/2000
Обработка зазоров : Добавлено к предыдущему треку
Выходной формат : Пользовательский кодировщик
Выбранный битрейт : 128 kBit/s
Качество : Высокий
Добавление ID3-тэга : Нет
Утилита сжатия : E:\Аудио\Exact Audio Copy\Flac\flac.exe
Дополнительные параметры : -8 -V -T "ARTIST=%a" -T "TITLE=%t" -T "ALBUM=%g" -T "DATE=%y" -T "TRACKNUMBER=%n" -T "GENRE=%m" -T "COMMENT=EAC FLAC -8" %s
TOC извлечённого CD
Трек | Старт | Длительность | Начальный сектор | Конечный сектор
---------------------------------------------------------------------
1 | 0:00.00 | 4:17.28 | 0 | 19302
2 | 4:17.28 | 4:01.65 | 19303 | 37442
3 | 8:19.18 | 3:26.05 | 37443 | 52897
4 | 11:45.23 | 3:26.19 | 52898 | 68366
5 | 15:11.42 | 4:34.73 | 68367 | 88989
6 | 19:46.40 | 4:01.72 | 88990 | 107136
7 | 23:48.37 | 3:31.55 | 107137 | 123016
8 | 27:20.17 | 4:43.23 | 123017 | 144264
9 | 32:03.40 | 3:54.15 | 144265 | 161829
10 | 35:57.55 | 4:24.43 | 161830 | 181672
11 | 40:22.23 | 3:51.05 | 181673 | 199002
12 | 44:13.28 | 3:59.71 | 199003 | 216998
13 | 48:13.24 | 4:20.25 | 216999 | 236523
14 | 52:33.49 | 3:45.56 | 236524 | 253454
15 | 56:19.30 | 3:56.52 | 253455 | 271206
16 | 60:16.07 | 3:22.18 | 271207 | 286374
17 | 63:38.25 | 3:45.69 | 286375 | 303318
Трек 1
Имя файла D:\Temp\Sergio Mendes\Celebration - A Musical Journey (CD 2)\01. Sergio Mendes – Never Gonna Let You Go.wav
Длина предзазора 0:00:02.00
Пиковый уровень 98.8 %
Качество трека 99.9 %
CRC теста 76BD4E08
CRC копии 76BD4E08
Трек не обнаружен в базе AccurateRip
Копирование... OK
Трек 2
Имя файла D:\Temp\Sergio Mendes\Celebration - A Musical Journey (CD 2)\02. Sergio Mendes – My Summer Love.wav
Длина предзазора 0:00:02.00
Пиковый уровень 98.9 %
Качество трека 100.0 %
CRC теста 8DA4143E
CRC копии 8DA4143E
Трек не обнаружен в базе AccurateRip
Копирование... OK
Трек 3
Имя файла D:\Temp\Sergio Mendes\Celebration - A Musical Journey (CD 2)\03. Sergio Mendes – The Sound of One Song.wav
Длина предзазора 0:00:02.00
Пиковый уровень 98.9 %
Качество трека 100.0 %
CRC теста 74788B5A
CRC копии 74788B5A
Трек не обнаружен в базе AccurateRip
Копирование... OK
Трек 4
Имя файла D:\Temp\Sergio Mendes\Celebration - A Musical Journey (CD 2)\04. Sergio Mendes – Kisses (feat. Gracinha Leporace).wav
Длина предзазора 0:00:02.00
Пиковый уровень 98.8 %
Качество трека 100.0 %
CRC теста 8BD978B0
CRC копии 8BD978B0
Трек не обнаружен в базе AccurateRip
Копирование... OK
Трек 5
Имя файла D:\Temp\Sergio Mendes\Celebration - A Musical Journey (CD 2)\05. Sergio Mendes – Daylight (feat. Gracinha Leporace).wav
Длина предзазора 0:00:02.00
Пиковый уровень 94.4 %
Качество трека 100.0 %
CRC теста 4F7869B0
CRC копии 4F7869B0
Трек не обнаружен в базе AccurateRip
Копирование... OK
Трек 6
Имя файла D:\Temp\Sergio Mendes\Celebration - A Musical Journey (CD 2)\06. Sergio Mendes – Sarara (Bring Me the Sunlight).wav
Длина предзазора 0:00:02.00
Пиковый уровень 98.8 %
Качество трека 100.0 %
CRC теста FEE03BF2
CRC копии FEE03BF2
Трек не обнаружен в базе AccurateRip
Копирование... OK
Трек 7
Имя файла D:\Temp\Sergio Mendes\Celebration - A Musical Journey (CD 2)\07. Sergio Mendes – Cinnamon & Cove (Cravo E Canela).wav
Длина предзазора 0:00:02.00
Пиковый уровень 100.0 %
Качество трека 100.0 %
CRC теста 0175AA13
CRC копии 0175AA13
Трек не обнаружен в базе AccurateRip
Копирование... OK
Трек 8
Имя файла D:\Temp\Sergio Mendes\Celebration - A Musical Journey (CD 2)\08. Sergio Mendes – Rio de Janerio.wav
Длина предзазора 0:00:02.00
Пиковый уровень 98.8 %
Качество трека 100.0 %
CRC теста FDADEAB8
CRC копии FDADEAB8
Трек не обнаружен в базе AccurateRip
Копирование... OK
Трек 9
Имя файла D:\Temp\Sergio Mendes\Celebration - A Musical Journey (CD 2)\09. Sergio Mendes – Holografico Olodum (feat. Gilberto Gil).wav
Длина предзазора 0:00:02.00
Пиковый уровень 98.8 %
Качество трека 100.0 %
CRC теста 9D50695B
CRC копии 9D50695B
Трек не обнаружен в базе AccurateRip
Копирование... OK
Трек 10
Имя файла D:\Temp\Sergio Mendes\Celebration - A Musical Journey (CD 2)\10. Sergio Mendes – Mas Que Nada (feat. The Black Eyed Peas).wav
Длина предзазора 0:00:02.00
Пиковый уровень 93.3 %
Качество трека 100.0 %
CRC теста 6600050F
CRC копии 6600050F
Трек не обнаружен в базе AccurateRip
Копирование... OK
Трек 11
Имя файла D:\Temp\Sergio Mendes\Celebration - A Musical Journey (CD 2)\11. Sergio Mendes – The Frog (feat. Q-Tip & Will. i. am).wav
Длина предзазора 0:00:02.00
Пиковый уровень 89.8 %
Качество трека 100.0 %
CRC теста 02F3EE05
CRC копии 02F3EE05
Трек не обнаружен в базе AccurateRip
Копирование... OK
Трек 12
Имя файла D:\Temp\Sergio Mendes\Celebration - A Musical Journey (CD 2)\12. Sergio Mendes – Waters of March (feat. Ledisi).wav
Длина предзазора 0:00:02.00
Пиковый уровень 85.1 %
Качество трека 100.0 %
CRC теста C3BFCDC2
CRC копии C3BFCDC2
Трек не обнаружен в базе AccurateRip
Копирование... OK
Трек 13
Имя файла D:\Temp\Sergio Mendes\Celebration - A Musical Journey (CD 2)\13. Sergio Mendes – Y Vamos Ya (feat. Juanes).wav
Длина предзазора 0:00:02.00
Пиковый уровень 98.8 %
Качество трека 99.9 %
CRC теста 645083F2
CRC копии 645083F2
Трек не обнаружен в базе AccurateRip
Копирование... OK
Трек 14
Имя файла D:\Temp\Sergio Mendes\Celebration - A Musical Journey (CD 2)\14. Sergio Mendes – So Tinha De er Com Voce (feat. Gracinha Leporace).wav
Длина предзазора 0:00:02.00
Пиковый уровень 92.3 %
Качество трека 100.0 %
CRC теста F0FB89AB
CRC копии F0FB89AB
Трек не обнаружен в базе AccurateRip
Копирование... OK
Трек 15
Имя файла D:\Temp\Sergio Mendes\Celebration - A Musical Journey (CD 2)\15. Sergio Mendes – Magalenha (feat. Carlinhos Brown).wav
Длина предзазора 0:00:02.00
Пиковый уровень 97.7 %
Качество трека 100.0 %
CRC теста E528DEBA
CRC копии E528DEBA
Трек не обнаружен в базе AccurateRip
Копирование... OK
Трек 16
Имя файла D:\Temp\Sergio Mendes\Celebration - A Musical Journey (CD 2)\16. Sergio Mendes – The Fool On The Hill (feat. Siedah Garrett).wav
Длина предзазора 0:00:02.00
Пиковый уровень 98.8 %
Качество трека 99.9 %
CRC теста B08C2EFD
CRC копии B08C2EFD
Трек не обнаружен в базе AccurateRip
Копирование... OK
Трек 17
Имя файла D:\Temp\Sergio Mendes\Celebration - A Musical Journey (CD 2)\17. Sergio Mendes – Chove Chuva (feat. Ivete Sangalo).wav
Длина предзазора 0:00:02.00
Пиковый уровень 98.9 %
Качество трека 100.0 %
CRC теста 22014692
CRC копии 22014692
Трек не обнаружен в базе AccurateRip
Копирование... OK
Ни одного трека нет в базе AccurateRip
Ошибок не произошло
Конец отчёта
 
Содержание индексной карты (.CUE)
 
Celebration - A Musical Journey (CD 1)
REM GENRE "Easy Listening"
REM DATE 2011
REM DISCID 3B0FA215
REM COMMENT "ExactAudioCopy v0.99pb5"
PERFORMER "Sergio Mendes"
TITLE "Celebration - A Musical Journey (CD 1)"
FILE "01. Sergio Mendes – Outra Vez.wav" WAVE
TRACK 01 AUDIO
TITLE "Outra Vez"
PERFORMER "Sergio Mendes"
INDEX 01 00:00:00
TRACK 02 AUDIO
TITLE "Garota de Ipanema (feat. Bossa Rio)"
PERFORMER "Sergio Mendes"
INDEX 00 02:22:09
FILE "02. Sergio Mendes – Garota de Ipanema (feat. Bossa Rio).wav" WAVE
INDEX 01 00:00:00
TRACK 03 AUDIO
TITLE "So Danco Samba (feat. Sergio Mendes Trio)"
PERFORMER "Sergio Mendes"
INDEX 00 03:13:23
FILE "03. Sergio Mendes – So Danco Samba (feat. Sergio Mendes Trio).wav" WAVE
INDEX 01 00:00:00
TRACK 04 AUDIO
TITLE "Mais Que Nada (feat. Brazil '66)"
PERFORMER "Sergio Mendes"
INDEX 00 03:07:52
FILE "04. Sergio Mendes – Mais Que Nada (feat. Brazil '66).wav" WAVE
INDEX 01 00:00:00
TRACK 05 AUDIO
TITLE "Going Out of My Head (feat. Brazil '66)"
PERFORMER "Sergio Mendes"
INDEX 00 02:37:66
FILE "05. Sergio Mendes – Going Out of My Head (feat. Brazil '66).wav" WAVE
INDEX 01 00:00:00
TRACK 06 AUDIO
TITLE "Constant Rain (feat. Brazil '66)"
PERFORMER "Sergio Mendes"
INDEX 00 03:03:28
FILE "06. Sergio Mendes – Constant Rain (feat. Brazil '66).wav" WAVE
INDEX 01 00:00:00
TRACK 07 AUDIO
TITLE "Night and Day (feat. Brazil '66)"
PERFORMER "Sergio Mendes"
INDEX 00 03:13:71
FILE "07. Sergio Mendes – Night and Day (feat. Brazil '66).wav" WAVE
INDEX 01 00:00:00
TRACK 08 AUDIO
TITLE "The Look of Love (feat. Brazil '66)"
PERFORMER "Sergio Mendes"
INDEX 00 03:05:11
FILE "08. Sergio Mendes – The Look of Love (feat. Brazil '66).wav" WAVE
INDEX 01 00:00:00
TRACK 09 AUDIO
TITLE "So Many Stars (feat. Brazil '66)"
PERFORMER "Sergio Mendes"
INDEX 00 02:42:32
FILE "09. Sergio Mendes – So Many Stars (feat. Brazil '66).wav" WAVE
INDEX 01 00:00:00
TRACK 10 AUDIO
TITLE "The Fool on the Hill (feat. Brazil '66)"
PERFORMER "Sergio Mendes"
INDEX 00 04:27:12
FILE "10. Sergio Mendes – The Fool on the Hill (feat. Brazil '66).wav" WAVE
INDEX 01 00:00:00
TRACK 11 AUDIO
TITLE "Scarborough Fair (feat. Brazil '66)"
PERFORMER "Sergio Mendes"
INDEX 00 03:12:43
FILE "11. Sergio Mendes – Scarborough Fair (feat. Brazil '66).wav" WAVE
INDEX 01 00:00:00
TRACK 12 AUDIO
TITLE "(Sittin' On) The Dock of the Bay (feat. Brazil '66)"
PERFORMER "Sergio Mendes"
INDEX 00 03:18:46
FILE "12. Sergio Mendes – (Sittin' On) The Dock of the Bay (feat. Brazil '66).wav" WAVE
INDEX 01 00:00:00
TRACK 13 AUDIO
TITLE "Pretty World (feat. Brazil '66)"
PERFORMER "Sergio Mendes"
INDEX 00 03:10:26
FILE "13. Sergio Mendes – Pretty World (feat. Brazil '66).wav" WAVE
INDEX 01 00:00:00
TRACK 14 AUDIO
TITLE "Wichita Lineman (feat. Brazil '66)"
PERFORMER "Sergio Mendes"
INDEX 00 03:19:58
FILE "14. Sergio Mendes – Wichita Lineman (feat. Brazil '66).wav" WAVE
INDEX 01 00:00:00
TRACK 15 AUDIO
TITLE "Norwegian Wood (feat. Brazil '66)"
PERFORMER "Sergio Mendes"
INDEX 00 02:46:69
FILE "15. Sergio Mendes – Norwegian Wood (feat. Brazil '66).wav" WAVE
INDEX 01 00:00:00
TRACK 16 AUDIO
TITLE "Masquerade (feat. Brazil '66)"
PERFORMER "Sergio Mendes"
INDEX 00 03:49:26
FILE "16. Sergio Mendes – Masquerade (feat. Brazil '66).wav" WAVE
INDEX 01 00:00:00
TRACK 17 AUDIO
TITLE "What the World Needs Now Is Love"
PERFORMER "Sergio Mendes"
INDEX 00 03:29:09
FILE "17. Sergio Mendes – What the World Needs Now Is Love.wav" WAVE
INDEX 01 00:00:00
TRACK 18 AUDIO
TITLE "Pais Tropical (feat. Brazil '66)"
PERFORMER "Sergio Mendes"
INDEX 00 02:14:03
FILE "18. Sergio Mendes – Pais Tropical (feat. Brazil '66).wav" WAVE
INDEX 01 00:00:00
TRACK 19 AUDIO
TITLE "Viramundo"
PERFORMER "Sergio Mendes"
INDEX 00 02:44:10
FILE "19. Sergio Mendes – Viramundo.wav" WAVE
INDEX 01 00:00:00
TRACK 20 AUDIO
TITLE "After Sunrise (feat. Brazil '77)"
PERFORMER "Sergio Mendes"
INDEX 00 03:03:33
FILE "20. Sergio Mendes – After Sunrise (feat. Brazil '77).wav" WAVE
INDEX 01 00:00:00
TRACK 21 AUDIO
TITLE "Promesa de Pescador (feat. Brazil '77)"
PERFORMER "Sergio Mendes"
INDEX 00 03:27:09
FILE "21. Sergio Mendes – Promesa de Pescador (feat. Brazil '77).wav" WAVE
INDEX 01 00:00:00
 
Celebration - A Musical Journey (CD 2)
REM GENRE "Vevre Music Group"
REM DATE 2011
REM DISCID EE0FCC11
REM COMMENT "ExactAudioCopy v0.99pb5"
PERFORMER "Sergio Mendes"
TITLE "Celebration - A Musical Journey (CD 2)"
FILE "01. Sergio Mendes – Never Gonna Let You Go.wav" WAVE
TRACK 01 AUDIO
TITLE "Never Gonna Let You Go"
PERFORMER "Sergio Mendes"
INDEX 01 00:00:00
TRACK 02 AUDIO
TITLE "My Summer Love"
PERFORMER "Sergio Mendes"
INDEX 00 04:15:28
FILE "02. Sergio Mendes – My Summer Love.wav" WAVE
INDEX 01 00:00:00
TRACK 03 AUDIO
TITLE "The Sound of One Song"
PERFORMER "Sergio Mendes"
INDEX 00 03:59:65
FILE "03. Sergio Mendes – The Sound of One Song.wav" WAVE
INDEX 01 00:00:00
TRACK 04 AUDIO
TITLE "Kisses (feat. Gracinha Leporace)"
PERFORMER "Sergio Mendes"
INDEX 00 03:24:05
FILE "04. Sergio Mendes – Kisses (feat. Gracinha Leporace).wav" WAVE
INDEX 01 00:00:00
TRACK 05 AUDIO
TITLE "Daylight (feat. Gracinha Leporace)"
PERFORMER "Sergio Mendes"
INDEX 00 03:24:19
FILE "05. Sergio Mendes – Daylight (feat. Gracinha Leporace).wav" WAVE
INDEX 01 00:00:00
TRACK 06 AUDIO
TITLE "Sarara (Bring Me the Sunlight)"
PERFORMER "Sergio Mendes"
INDEX 00 04:32:73
FILE "06. Sergio Mendes – Sarara (Bring Me the Sunlight).wav" WAVE
INDEX 01 00:00:00
TRACK 07 AUDIO
TITLE "Cinnamon & Cove (Cravo E Canela)"
PERFORMER "Sergio Mendes"
INDEX 00 03:59:72
FILE "07. Sergio Mendes – Cinnamon & Cove (Cravo E Canela).wav" WAVE
INDEX 01 00:00:00
TRACK 08 AUDIO
TITLE "Rio de Janerio"
PERFORMER "Sergio Mendes"
INDEX 00 03:29:55
FILE "08. Sergio Mendes – Rio de Janerio.wav" WAVE
INDEX 01 00:00:00
TRACK 09 AUDIO
TITLE "Holografico Olodum (feat. Gilberto Gil)"
PERFORMER "Sergio Mendes"
INDEX 00 04:41:23
FILE "09. Sergio Mendes – Holografico Olodum (feat. Gilberto Gil).wav" WAVE
INDEX 01 00:00:00
TRACK 10 AUDIO
TITLE "Mas Que Nada (feat. The Black Eyed Peas)"
PERFORMER "Sergio Mendes"
INDEX 00 03:52:15
FILE "10. Sergio Mendes – Mas Que Nada (feat. The Black Eyed Peas).wav" WAVE
INDEX 01 00:00:00
TRACK 11 AUDIO
TITLE "The Frog (feat. Q-Tip & Will. i. am)"
PERFORMER "Sergio Mendes"
INDEX 00 04:22:43
FILE "11. Sergio Mendes – The Frog (feat. Q-Tip & Will. i. am).wav" WAVE
INDEX 01 00:00:00
TRACK 12 AUDIO
TITLE "Waters of March (feat. Ledisi)"
PERFORMER "Sergio Mendes"
INDEX 00 03:49:05
FILE "12. Sergio Mendes – Waters of March (feat. Ledisi).wav" WAVE
INDEX 01 00:00:00
TRACK 13 AUDIO
TITLE "Y Vamos Ya (feat. Juanes)"
PERFORMER "Sergio Mendes"
INDEX 00 03:57:71
FILE "13. Sergio Mendes – Y Vamos Ya (feat. Juanes).wav" WAVE
INDEX 01 00:00:00
TRACK 14 AUDIO
TITLE "So Tinha De er Com Voce (feat. Gracinha Leporace)"
PERFORMER "Sergio Mendes"
INDEX 00 04:18:25
FILE "14. Sergio Mendes – So Tinha De er Com Voce (feat. Gracinha Leporace).wav" WAVE
INDEX 01 00:00:00
TRACK 15 AUDIO
TITLE "Magalenha (feat. Carlinhos Brown)"
PERFORMER "Sergio Mendes"
INDEX 00 03:43:56
FILE "15. Sergio Mendes – Magalenha (feat. Carlinhos Brown).wav" WAVE
INDEX 01 00:00:00
TRACK 16 AUDIO
TITLE "The Fool On The Hill (feat. Siedah Garrett)"
PERFORMER "Sergio Mendes"
INDEX 00 03:54:52
FILE "16. Sergio Mendes – The Fool On The Hill (feat. Siedah Garrett).wav" WAVE
INDEX 01 00:00:00
TRACK 17 AUDIO
TITLE "Chove Chuva (feat. Ivete Sangalo)"
PERFORMER "Sergio Mendes"
INDEX 00 03:20:18
FILE "17. Sergio Mendes – Chove Chuva (feat. Ivete Sangalo).wav" WAVE
INDEX 01 00:00:00
 
Лог проверки качества
-----------------------------------------------------------
Started at: суббота, 04. 06. 2011. - 20:48.36
38 files found
01 -===- D:\Temp\Sergio Mendes\Celebration - A Musical Journey (CD 1)\01. Sergio Mendes – Outra Vez.flac
Extracted successfully
Conclusion: this track is CDDA with probability 100%
Tempfile successfully deleted.
02 -===- D:\Temp\Sergio Mendes\Celebration - A Musical Journey (CD 1)\02. Sergio Mendes – Garota de Ipanema (feat. Bossa Rio).flac
Extracted successfully
Conclusion: this track is CDDA with probability 100%
Tempfile successfully deleted.
03 -===- D:\Temp\Sergio Mendes\Celebration - A Musical Journey (CD 1)\03. Sergio Mendes – So Danco Samba (feat. Sergio Mendes Trio).flac
Extracted successfully
Conclusion: this track is CDDA with probability 100%
Tempfile successfully deleted.
04 -===- D:\Temp\Sergio Mendes\Celebration - A Musical Journey (CD 1)\04. Sergio Mendes – Mais Que Nada (feat. Brazil '66).flac
Extracted successfully
Conclusion: this track is CDDA with probability 100%
Tempfile successfully deleted.
05 -===- D:\Temp\Sergio Mendes\Celebration - A Musical Journey (CD 1)\05. Sergio Mendes – Going Out of My Head (feat. Brazil '66).flac
Extracted successfully
Conclusion: this track is CDDA with probability 100%
Tempfile successfully deleted.
06 -===- D:\Temp\Sergio Mendes\Celebration - A Musical Journey (CD 1)\06. Sergio Mendes – Constant Rain (feat. Brazil '66).flac
Extracted successfully
Conclusion: this track is CDDA with probability 99%
Tempfile successfully deleted.
07 -===- D:\Temp\Sergio Mendes\Celebration - A Musical Journey (CD 1)\07. Sergio Mendes – Night and Day (feat. Brazil '66).flac
Extracted successfully
Conclusion: this track is CDDA with probability 100%
Tempfile successfully deleted.
08 -===- D:\Temp\Sergio Mendes\Celebration - A Musical Journey (CD 1)\08. Sergio Mendes – The Look of Love (feat. Brazil '66).flac
Extracted successfully
Conclusion: this track is CDDA with probability 100%
Tempfile successfully deleted.
09 -===- D:\Temp\Sergio Mendes\Celebration - A Musical Journey (CD 1)\09. Sergio Mendes – So Many Stars (feat. Brazil '66).flac
Extracted successfully
Conclusion: this track is CDDA with probability 100%
Tempfile successfully deleted.
10 -===- D:\Temp\Sergio Mendes\Celebration - A Musical Journey (CD 1)\10. Sergio Mendes – The Fool on the Hill (feat. Brazil '66).flac
Extracted successfully
Conclusion: this track is CDDA with probability 100%
Tempfile successfully deleted.
11 -===- D:\Temp\Sergio Mendes\Celebration - A Musical Journey (CD 1)\11. Sergio Mendes – Scarborough Fair (feat. Brazil '66).flac
Extracted successfully
Conclusion: this track is CDDA with probability 100%
Tempfile successfully deleted.
12 -===- D:\Temp\Sergio Mendes\Celebration - A Musical Journey (CD 1)\12. Sergio Mendes – (Sittin' On) The Dock of the Bay (feat. Brazil '66).flac
Extracted successfully
Conclusion: this track is CDDA with probability 100%
Tempfile successfully deleted.
13 -===- D:\Temp\Sergio Mendes\Celebration - A Musical Journey (CD 1)\13. Sergio Mendes – Pretty World (feat. Brazil '66).flac
Extracted successfully
Conclusion: this track is CDDA with probability 100%
Tempfile successfully deleted.
14 -===- D:\Temp\Sergio Mendes\Celebration - A Musical Journey (CD 1)\14. Sergio Mendes – Wichita Lineman (feat. Brazil '66).flac
Extracted successfully
Conclusion: this track is CDDA with probability 100%
Tempfile successfully deleted.
15 -===- D:\Temp\Sergio Mendes\Celebration - A Musical Journey (CD 1)\15. Sergio Mendes – Norwegian Wood (feat. Brazil '66).flac
Extracted successfully
Conclusion: this track is CDDA with probability 100%
Tempfile successfully deleted.
16 -===- D:\Temp\Sergio Mendes\Celebration - A Musical Journey (CD 1)\16. Sergio Mendes – Masquerade (feat. Brazil '66).flac
Extracted successfully
Conclusion: this track is CDDA with probability 100%
Tempfile successfully deleted.
17 -===- D:\Temp\Sergio Mendes\Celebration - A Musical Journey (CD 1)\17. Sergio Mendes – What the World Needs Now Is Love.flac
Extracted successfully
Conclusion: this track is CDDA with probability 100%
Tempfile successfully deleted.
18 -===- D:\Temp\Sergio Mendes\Celebration - A Musical Journey (CD 1)\18. Sergio Mendes – Pais Tropical (feat. Brazil '66).flac
Extracted successfully
Conclusion: this track is CDDA with probability 99%
Tempfile successfully deleted.
19 -===- D:\Temp\Sergio Mendes\Celebration - A Musical Journey (CD 1)\19. Sergio Mendes – Viramundo.flac
Extracted successfully
Conclusion: this track is CDDA with probability 100%
Tempfile successfully deleted.
20 -===- D:\Temp\Sergio Mendes\Celebration - A Musical Journey (CD 1)\20. Sergio Mendes – After Sunrise (feat. Brazil '77).flac
Extracted successfully
Conclusion: this track is CDDA with probability 99%
Tempfile successfully deleted.
21 -===- D:\Temp\Sergio Mendes\Celebration - A Musical Journey (CD 1)\21. Sergio Mendes – Promesa de Pescador (feat. Brazil '77).flac
Extracted successfully
Conclusion: this track is CDDA with probability 99%
Tempfile successfully deleted.
22 -===- D:\Temp\Sergio Mendes\Celebration - A Musical Journey (CD 2)\01. Sergio Mendes – Never Gonna Let You Go.flac
Extracted successfully
Conclusion: this track is CDDA with probability 100%
Tempfile successfully deleted.
23 -===- D:\Temp\Sergio Mendes\Celebration - A Musical Journey (CD 2)\02. Sergio Mendes – My Summer Love.flac
Extracted successfully
Conclusion: this track is CDDA with probability 43%
Tempfile successfully deleted.
24 -===- D:\Temp\Sergio Mendes\Celebration - A Musical Journey (CD 2)\03. Sergio Mendes – The Sound of One Song.flac
Extracted successfully
Conclusion: this track is CDDA with probability 100%
Tempfile successfully deleted.
25 -===- D:\Temp\Sergio Mendes\Celebration - A Musical Journey (CD 2)\04. Sergio Mendes – Kisses (feat. Gracinha Leporace).flac
Extracted successfully
Conclusion: this track is CDDA with probability 100%
Tempfile successfully deleted.
26 -===- D:\Temp\Sergio Mendes\Celebration - A Musical Journey (CD 2)\05. Sergio Mendes – Daylight (feat. Gracinha Leporace).flac
Extracted successfully
Conclusion: this track is CDDA with probability 100%
Tempfile successfully deleted.
27 -===- D:\Temp\Sergio Mendes\Celebration - A Musical Journey (CD 2)\06. Sergio Mendes – Sarara (Bring Me the Sunlight).flac
Extracted successfully
Conclusion: this track is CDDA with probability 100%
Tempfile successfully deleted.
28 -===- D:\Temp\Sergio Mendes\Celebration - A Musical Journey (CD 2)\07. Sergio Mendes – Cinnamon & Cove (Cravo E Canela).flac
Extracted successfully
Conclusion: this track is CDDA with probability 99%
Tempfile successfully deleted.
29 -===- D:\Temp\Sergio Mendes\Celebration - A Musical Journey (CD 2)\08. Sergio Mendes – Rio de Janerio.flac
Extracted successfully
Conclusion: this track is CDDA with probability 100%
Tempfile successfully deleted.
30 -===- D:\Temp\Sergio Mendes\Celebration - A Musical Journey (CD 2)\09. Sergio Mendes – Holografico Olodum (feat. Gilberto Gil).flac
Extracted successfully
Conclusion: this track is CDDA with probability 100%
Tempfile successfully deleted.
31 -===- D:\Temp\Sergio Mendes\Celebration - A Musical Journey (CD 2)\10. Sergio Mendes – Mas Que Nada (feat. The Black Eyed Peas).flac
Extracted successfully
Conclusion: this track is CDDA with probability 100%
Tempfile successfully deleted.
32 -===- D:\Temp\Sergio Mendes\Celebration - A Musical Journey (CD 2)\11. Sergio Mendes – The Frog (feat. Q-Tip & Will. i. am).flac
Extracted successfully
Conclusion: this track is CDDA with probability 100%
Tempfile successfully deleted.
33 -===- D:\Temp\Sergio Mendes\Celebration - A Musical Journey (CD 2)\12. Sergio Mendes – Waters of March (feat. Ledisi).flac
Extracted successfully
Conclusion: this track is CDDA with probability 100%
Tempfile successfully deleted.
34 -===- D:\Temp\Sergio Mendes\Celebration - A Musical Journey (CD 2)\13. Sergio Mendes – Y Vamos Ya (feat. Juanes).flac
Extracted successfully
Conclusion: this track is CDDA with probability 100%
Tempfile successfully deleted.
35 -===- D:\Temp\Sergio Mendes\Celebration - A Musical Journey (CD 2)\14. Sergio Mendes – So Tinha De er Com Voce (feat. Gracinha Leporace).flac
Extracted successfully
Conclusion: this track is CDDA with probability 100%
Tempfile successfully deleted.
36 -===- D:\Temp\Sergio Mendes\Celebration - A Musical Journey (CD 2)\15. Sergio Mendes – Magalenha (feat. Carlinhos Brown).flac
Extracted successfully
Conclusion: this track is CDDA with probability 100%
Tempfile successfully deleted.
37 -===- D:\Temp\Sergio Mendes\Celebration - A Musical Journey (CD 2)\16. Sergio Mendes – The Fool On The Hill (feat. Siedah Garrett).flac
Extracted successfully
Conclusion: this track is CDDA with probability 100%
Tempfile successfully deleted.
38 -===- D:\Temp\Sergio Mendes\Celebration - A Musical Journey (CD 2)\17. Sergio Mendes – Chove Chuva (feat. Ivete Sangalo).flac
Extracted successfully
Conclusion: this track is CDDA with probability 100%
Tempfile successfully deleted.
Finished at: суббота, 04. 06. 2011. - 21:03.48 (operation time: 0:15.12)
 
Скриншот спектра частот
 
Об исполнителе (группе)
Сержио Сантос Мендес (род. 11 февраля 1941) — бразильский музыкант, в творчестве которого босса-нова тесно переплетается с джазом и фанком. За более чем 45 лет своей музыкальной карьеры Мендес записал 35 студийных альбомов. После большого успеха в 1960-х годах он возобновил к себе интерес в 2006 году, записав совместно с американской группой «The Black Eyed Peas» кавер-версию песни Jorge Ben Jor 1963 года «Mas Que Nada», которую уже исполнял в 1966 заслужив внимание огромной аудитории. Интерес к жанру боса новы и творчеству Мендеса возрос с выходом в 2011 году анимационного мультфильма компании Blue Sky Studios - "Рио (Rio)".
 
Об альбоме (сборнике)
Сборник под названием "Celebration - A Musical Journey", охватывает 50 лет карьеры артиста, начиная с его дебютного альбома. В коллекцию входят лучшие хиты Мендеса, душевные и известные бразильские ритмы, оживленные сотрудничеством Мендеса с Will.i.am и Black Eye Peas... Слушая эту коллекцию становится ясно, что начиная с 60-х и до наших дней освежающие ритмы бразильской боса новы по-прежнему актуальны.
22:42
309
Нет комментариев. Ваш будет первым!