Поиск

(Jazz, Bossa Nova) [CD] Gabriela Anders - Eclectica - 2003, FLAC (tracks+.cue), lossless

(Jazz, Bossa Nova) [CD] Gabriela Anders - Eclectica - 2003, FLAC (tracks+.cue), lossless
Треклист:
Gabriela Anders / Eclectica
Жанр: Jazz, Bossa Nova
Носитель: CD
Страна-производитель диска: USA
Год издания: 2003
Издатель (лейбл): East River Joint Records NYC
Номер по каталогу: 16892 5595-2
Страна: Argentina
Аудиокодек: FLAC (*.flac)
Тип рипа: tracks+.cue
Битрейт аудио: lossless
Продолжительность: 00:42:57
Источник (релизер): Свой диск
Наличие сканов в содержимом раздачи: да
Треклист:
01. Together Again - 04:22
02. Pearls And Gold - 03:37
03. Naufragio - 04:15
04. What My Dreams Are Made Of - 04:37
05. Fading Light - 04:32
06. I Wait - 05:30
07. Socamerengue - 03:34
08. Like U Do - 04:08
09. Far Away - 04:46
10. Love So Right - 03:31
 
Лог создания рипа
Exact Audio Copy V1.0 beta 3 from 29. August 2011
Отчёт EAC об извлечении, выполненном 14. декабря 2013, 13:36
Gabriela Anders / Eclectica
Дисковод: ASUS DRW-24B3ST Adapter: 1 ID: 0
Режим чтения : Достоверность
Использование точного потока : Да
Отключение кэша аудио : Да
Использование указателей C2 : Нет
Коррекция смещения при чтении : 6
Способность читать области Lead-in и Lead-out : Нет
Заполнение пропущенных сэмплов тишиной : Да
Удаление блоков с тишиной в начале и конце : Нет
При вычислениях CRC использовались нулевые сэмплы : Да
Интерфейс : Встроенный Win32-интерфейс для Win NT/2000
Обработка зазоров : Добавлено к предыдущему треку
Выходной формат : Пользовательский кодировщик
Выбранный битрейт : 896 kBit/s
Качество : Высокий
Добавление ID3-тега : Нет
Утилита сжатия : C:\Program Files\Exact Audio Copy\FLAC\FLAC.EXE
Дополнительные параметры : -8 -V -T "ARTIST=%artist%" -T "TITLE=%title%" -T "ALBUM=%albumtitle%" -T "DATE=%year%" -T "TRACKNUMBER=%tracknr%" -T "GENRE=%genre%" -T "COMMENT=%comment%" -T "BAND=%albuminterpret%" -T "ALBUMARTIST=%albuminterpret%" -T "COMPOSER=%composer%" %haslyrics%--tag-from-file=LYRICS="%lyricsfile%"%haslyrics% -T "DISCNUMBER=%cdnumber%" -T "TOTALDISCS=%totalcds%" -T "TOTALTRACKS=%numtracks%" %hascover%--picture="%coverfile%"%hascover% %source% -o %dest%
TOC извлечённого CD
Трек | Старт | Длительность | Начальный сектор | Конечный сектор
---------------------------------------------------------------------
1 | 0:00.00 | 4:22.27 | 0 | 19676
2 | 4:22.27 | 3:37.54 | 19677 | 36005
3 | 8:00.06 | 4:15.23 | 36006 | 55153
4 | 12:15.29 | 4:37.46 | 55154 | 75974
5 | 16:53.00 | 4:32.54 | 75975 | 96428
6 | 21:25.54 | 5:30.28 | 96429 | 121206
7 | 26:56.07 | 3:34.67 | 121207 | 137323
8 | 30:30.74 | 4:08.54 | 137324 | 155977
9 | 34:39.53 | 4:46.42 | 155978 | 177469
10 | 39:26.20 | 3:31.15 | 177470 | 193309
Трек 1
Имя файла C:\Users\Сергей\Music\EAC\01 Together Again.wav
Длина предзазора 0:00:02.00
Пиковый уровень 94.5 %
Скорость извлечения 1.8 X
Качество трека 100.0 %
CRC теста 286A6C76
CRC копии 286A6C76
Трек не обнаружен в базе AccurateRip
Копирование... OK
Трек 2
Имя файла C:\Users\Сергей\Music\EAC\02 Pearls And Gold.wav
Длина предзазора 0:00:03.30
Пиковый уровень 94.4 %
Скорость извлечения 2.0 X
Качество трека 100.0 %
CRC теста 7E7E1C8D
CRC копии 7E7E1C8D
Трек не обнаружен в базе AccurateRip
Копирование... OK
Трек 3
Имя файла C:\Users\Сергей\Music\EAC\03 Naufragio.wav
Длина предзазора 0:00:02.51
Пиковый уровень 94.4 %
Скорость извлечения 1.6 X
Качество трека 99.9 %
CRC теста 5F6175A6
CRC копии 5F6175A6
Трек не обнаружен в базе AccurateRip
Копирование... OK
Трек 4
Имя файла C:\Users\Сергей\Music\EAC\04 What My Dreams Are Made Of.wav
Длина предзазора 0:00:01.74
Пиковый уровень 68.3 %
Скорость извлечения 2.4 X
Качество трека 100.0 %
CRC теста 09CC2BD9
CRC копии 09CC2BD9
Трек не обнаружен в базе AccurateRip
Копирование... OK
Трек 5
Имя файла C:\Users\Сергей\Music\EAC\05 Fading Light.wav
Длина предзазора 0:00:02.66
Пиковый уровень 79.0 %
Скорость извлечения 2.6 X
Качество трека 100.0 %
CRC теста EF04650D
CRC копии EF04650D
Трек не обнаружен в базе AccurateRip
Копирование... OK
Трек 6
Имя файла C:\Users\Сергей\Music\EAC\06 I Wait.wav
Пиковый уровень 99.9 %
Скорость извлечения 2.8 X
Качество трека 100.0 %
CRC теста 2C8099AB
CRC копии 2C8099AB
Трек не обнаружен в базе AccurateRip
Копирование... OK
Трек 7
Имя файла C:\Users\Сергей\Music\EAC\07 Socamerengue.wav
Длина предзазора 0:00:03.33
Пиковый уровень 100.0 %
Скорость извлечения 2.8 X
Качество трека 100.0 %
CRC теста 4902ADA7
CRC копии 4902ADA7
Трек не обнаружен в базе AccurateRip
Копирование... OK
Трек 8
Имя файла C:\Users\Сергей\Music\EAC\08 Like U Do.wav
Длина предзазора 0:00:03.68
Пиковый уровень 99.9 %
Скорость извлечения 3.0 X
Качество трека 100.0 %
CRC теста AE65C3ED
CRC копии AE65C3ED
Трек не обнаружен в базе AccurateRip
Копирование... OK
Трек 9
Имя файла C:\Users\Сергей\Music\EAC\09 Far Away.wav
Длина предзазора 0:00:02.00
Пиковый уровень 99.9 %
Скорость извлечения 3.2 X
Качество трека 100.0 %
CRC теста 976E49A2
CRC копии 976E49A2
Трек не обнаружен в базе AccurateRip
Копирование... OK
Трек 10
Имя файла C:\Users\Сергей\Music\EAC\10 Love So Right.wav
Пиковый уровень 100.0 %
Скорость извлечения 3.1 X
Качество трека 100.0 %
CRC теста 394D864F
CRC копии 394D864F
Трек не обнаружен в базе AccurateRip
Копирование... OK
Ни одного трека нет в базе AccurateRip
Ошибок не произошло
Конец отчёта
==== Контрольная сумма отчёта 454BCEAD35613857D73B3FB0421D6AA5A0F3CF761A9B518BD110C979F19087FA ====
 
Содержание индексной карты (.CUE)
REM GENRE Jazz
REM DATE 2003
REM DISCID 820A110A
REM COMMENT "ExactAudioCopy v1.0b3"
PERFORMER "Gabriela Anders"
TITLE "Eclectica"
FILE "01 Together Again.wav" WAVE
TRACK 01 AUDIO
TITLE "Together Again"
PERFORMER "Gabriela Anders"
INDEX 01 00:00:00
TRACK 02 AUDIO
TITLE "Pearls And Gold"
PERFORMER "Gabriela Anders"
INDEX 00 04:18:72
FILE "02 Pearls And Gold.wav" WAVE
INDEX 01 00:00:00
TRACK 03 AUDIO
TITLE "Naufragio"
PERFORMER "Gabriela Anders"
INDEX 00 03:35:03
FILE "03 Naufragio.wav" WAVE
INDEX 01 00:00:00
TRACK 04 AUDIO
TITLE "What My Dreams Are Made Of"
PERFORMER "Gabriela Anders"
INDEX 00 04:13:24
FILE "04 What My Dreams Are Made Of.wav" WAVE
INDEX 01 00:00:00
TRACK 05 AUDIO
TITLE "Fading Light"
PERFORMER "Gabriela Anders"
INDEX 00 04:34:55
FILE "05 Fading Light.wav" WAVE
INDEX 01 00:00:00
FILE "06 I Wait.wav" WAVE
TRACK 06 AUDIO
TITLE "I Wait"
PERFORMER "Gabriela Anders"
INDEX 01 00:00:00
TRACK 07 AUDIO
TITLE "Socamerengue"
PERFORMER "Gabriela Anders"
INDEX 00 05:26:70
FILE "07 Socamerengue.wav" WAVE
INDEX 01 00:00:00
TRACK 08 AUDIO
TITLE "Like U Do"
PERFORMER "Gabriela Anders"
INDEX 00 03:30:74
FILE "08 Like U Do.wav" WAVE
INDEX 01 00:00:00
TRACK 09 AUDIO
TITLE "Far Away"
PERFORMER "Gabriela Anders"
INDEX 00 04:06:54
FILE "09 Far Away.wav" WAVE
INDEX 01 00:00:00
FILE "10 Love So Right.wav" WAVE
TRACK 10 AUDIO
TITLE "Love So Right"
PERFORMER "Gabriela Anders"
INDEX 01 00:00:00
Доп. информация: http://rateyourmusic.com/artist/gabriela_anders
14:23
387
Нет комментариев. Ваш будет первым!