Поиск

(Jazz, Bossa Nova) Caetano Veloso - Antologia 67-03 [2CD] - 2003, FLAC (image+.cue), lossless

Треклист:
Caetano Veloso - Antologia 67-03 [2CD] (2003)
Жанр: Jazz, Bossa Nova, Brazilian Pop
Дата выпуска диска: 2003
UPC: 06024 9810075 2
Страна: France
Производитель диска: Universal Music (с) 2003
Аудио кодек: FLAC
Тип рипа: image+.cue
Битрейт аудио: lossless
Продолжительность: 55:52 + 61:47
Tracklist:
Disc 1
01. Que Nao Se Ve (4:14)
02. Muito Romantico (2:28)
03. Nao Enche (3:30)
04. Chuva, Suor e Cerveja (3:24)
05. Os Argonautas (2:47)
06. Haiti (4:20)
07. Sampa (3:20)
08. Two Naira Fifty Kobo (5:04)
09. Dans Mon Isle (2:59)
10. O Leaozinho (3:07)
11. Let It Bleed (3:23)
12. Todo Errado (3:50)
13. Cucurrucucu Paloma (3:46)
14. Sozinho (3:06)
15. Pulsar (1:01)
16. Os Outros Romanticos (4:59)
Disc 2
01. Meu coracao vagabundo (2:25)
02. Minha voz, minha vida (2:53)
03. Enquanto O Lobo nao vem (2:32)
04. O Estrangeiro (6:13)
05. Nega Maluca - Billie Jean (3:56)
06. Meditacao de Jobim (2:27)
07. 13 de Maio (3:47)
08. Lua lua lua (3:58)
09. Superbacana (1:30)
10. Texto Verdade Tropical (1:07)
11. Doideca (3:41)
12. De palavra em palavra (1:21)
13. Tonada de luna llena (3:16)
14. O ciume (5:45)
15. Cajuina (2:19)
16. Carcara (3:59)
17. Maria Bethania (6:55)
18. Um canto de afoxe (3:04)
 
Логи извлечения EAC
 
Disc 1
Exact Audio Copy V0.99 prebeta 4 from 23. January 2008
Отчёт EAC об извлечении, выполненном 13. декабря 2009, 17:11
Caetano Veloso / Antologia 1967-2003 [CD1]
Дисковод: ASUS SDRW-08D1S-U Adapter: 2 ID: 0
Режим чтения : Достоверность
Использование точного потока : Да
Отключение кэша аудио : Да
Использование указателей C2 : Нет
Коррекция смещения при чтении : 667
Способность читать области Lead-in и Lead-out : Да
Заполнение пропущенных сэмплов тишиной : Да
Удаление блоков с тишиной в начале и конце : Нет
При вычислениях CRC использовались нулевые сэмплы : Да
Интерфейс : Встроенный Win32-интерфейс для Win NT/2000
Выходной формат : Внутренние WAV-операции
Формат сэмплов : 44.100 Гц; 16 бит; стерео
TOC извлечённого CD
Трек | Старт | Длительность | Начальный сектор | Конечный сектор
---------------------------------------------------------------------
1 | 0:00.00 | 4:16.04 | 0 | 19203
2 | 4:16.04 | 2:30.04 | 19204 | 30457
3 | 6:46.08 | 3:32.07 | 30458 | 46364
4 | 10:18.15 | 3:26.26 | 46365 | 61840
5 | 13:44.41 | 2:49.41 | 61841 | 74556
6 | 16:34.07 | 4:22.34 | 74557 | 94240
7 | 20:56.41 | 3:22.47 | 94241 | 109437
8 | 24:19.13 | 5:06.65 | 109438 | 132452
9 | 29:26.03 | 3:01.44 | 132453 | 146071
10 | 32:27.47 | 3:08.73 | 146072 | 160244
11 | 35:36.45 | 3:24.72 | 160245 | 175616
12 | 39:01.42 | 3:52.13 | 175617 | 193029
13 | 42:53.55 | 3:48.03 | 193030 | 210132
14 | 46:41.58 | 3:08.13 | 210133 | 224245
15 | 49:49.71 | 1:03.41 | 224246 | 229011
16 | 50:53.37 | 4:59.21 | 229012 | 251457
Характеристики диапазона извлечения и сообщения об ошибках
Выбранный диапазон
Имя файла F:\My Documents\Music\Caetano Veloso - Antologia 1967-2003 [CD1].wav
Пиковый уровень 100.0 %
Качество диапазона 100.0 %
CRC копии 8F59678A
Копирование... OK
Ошибок не произошло
AccurateRip: сводка
Трек 1 нет в базе данных
Трек 2 нет в базе данных
Трек 3 нет в базе данных
Трек 4 нет в базе данных
Трек 5 нет в базе данных
Трек 6 нет в базе данных
Трек 7 нет в базе данных
Трек 8 нет в базе данных
Трек 9 нет в базе данных
Трек 10 нет в базе данных
Трек 11 нет в базе данных
Трек 12 нет в базе данных
Трек 13 нет в базе данных
Трек 14 нет в базе данных
Трек 15 нет в базе данных
Трек 16 нет в базе данных
Ни одного трека нет в базе AccurateRip
Конец отчёта
 
Disc 2
Exact Audio Copy V0.99 prebeta 4 from 23. January 2008
Отчёт EAC об извлечении, выполненном 13. декабря 2009, 18:17
Caetano Veloso / Antologia 1967-2003 [CD2]
Дисковод: ASUS SDRW-08D1S-U Adapter: 2 ID: 0
Режим чтения : Достоверность
Использование точного потока : Да
Отключение кэша аудио : Да
Использование указателей C2 : Нет
Коррекция смещения при чтении : 667
Способность читать области Lead-in и Lead-out : Да
Заполнение пропущенных сэмплов тишиной : Да
Удаление блоков с тишиной в начале и конце : Нет
При вычислениях CRC использовались нулевые сэмплы : Да
Интерфейс : Встроенный Win32-интерфейс для Win NT/2000
Выходной формат : Внутренние WAV-операции
Формат сэмплов : 44.100 Гц; 16 бит; стерео
TOC извлечённого CD
Трек | Старт | Длительность | Начальный сектор | Конечный сектор
---------------------------------------------------------------------
1 | 0:00.00 | 2:27.25 | 0 | 11049
2 | 2:27.25 | 2:55.13 | 11050 | 24187
3 | 5:22.38 | 2:34.42 | 24188 | 35779
4 | 7:57.05 | 6:15.10 | 35780 | 63914
5 | 14:12.15 | 3:58.60 | 63915 | 81824
6 | 18:11.00 | 2:29.19 | 81825 | 93018
7 | 20:40.19 | 3:49.07 | 93019 | 110200
8 | 24:29.26 | 4:00.13 | 110201 | 128213
9 | 28:29.39 | 1:32.30 | 128214 | 135143
10 | 30:01.69 | 1:09.07 | 135144 | 140325
11 | 31:11.01 | 3:43.25 | 140326 | 157075
12 | 34:54.26 | 1:22.69 | 157076 | 163294
13 | 36:17.20 | 3:18.34 | 163295 | 178178
14 | 39:35.54 | 5:47.20 | 178179 | 204223
15 | 45:22.74 | 2:21.24 | 204224 | 214822
16 | 47:44.23 | 4:01.51 | 214823 | 232948
17 | 51:45.74 | 6:57.16 | 232949 | 264239
18 | 58:43.15 | 3:04.33 | 264240 | 278072
Характеристики диапазона извлечения и сообщения об ошибках
Выбранный диапазон
Имя файла F:\My Documents\Music\Caetano Veloso - Antologia 1967-2003 [CD2].wav
Пиковый уровень 100.0 %
Качество диапазона 100.0 %
CRC копии FA3C4774
Копирование... OK
Ошибок не произошло
AccurateRip: сводка
Трек 1 нет в базе данных
Трек 2 нет в базе данных
Трек 3 нет в базе данных
Трек 4 нет в базе данных
Трек 5 нет в базе данных
Трек 6 нет в базе данных
Трек 7 нет в базе данных
Трек 8 нет в базе данных
Трек 9 нет в базе данных
Трек 10 нет в базе данных
Трек 11 нет в базе данных
Трек 12 нет в базе данных
Трек 13 нет в базе данных
Трек 14 нет в базе данных
Трек 15 нет в базе данных
Трек 16 нет в базе данных
Трек 17 нет в базе данных
Трек 18 нет в базе данных
Ни одного трека нет в базе AccurateRip
Конец отчёта
 
Tau Analyzer
 
Disc 1
 
Disc 2

Собственноручно сделанный рип с фирменного диска.
Caetano Veloso - дискография (mp3, 128-320 kbps)
Download available for power users only.
10:28
246
Нет комментариев. Ваш будет первым!