Поиск

(Jazz, Bossa Nova) Caetano Veloso - A Bossa de Caetano - 2000, FLAC (image+.cue), lossless

Треклист:
Caetano Veloso - A Bossa de Caetano (2000)
Жанр: Jazz, Bossa Nova, Brazilian Pop
Дата выпуска диска: июль 2000
UPC: 601215947 2 2
Страна: Brazil
Производитель диска: Universal Music (с) 2000
Аудио кодек: FLAC
Тип рипа: image+.cue
Битрейт аудио: lossless
Продолжительность: 45:46
Tracklist:
01. Samba de Verao (3:09)
02. Chega de Saudade (2:06)
03. Desde que o Samba e Samba (5:10)
04. Coisa mais Lida (3:14)
05. Get out of Town (3:55)
06. Quando eu Penso na Bahia (1:51)
07. Chuvas de Verao (2:51)
08. Lindeza (4:07)
09. Chora tua Tristeza (3:00)
10. Nega Maluca - Billy Jean - Eleanor Rigby (3:55)
11. Dindi - Eu Sei que Vou te Amar (2:59)
12. Samba e Amor (2:54)
13. Oba La La - Bim Bom (2:19)
14. Na Baixa do Sapateiro (3:45)
 
Info
Throughout his long career, Caetano Veloso has recorded songs of innumerable moods and styles -- ranging from psychedelic rock and smooth rap to upbeat samba and melancholic Brazilian folk music. This CD, however, is filled exclusively with bossa nova tunes that Veloso performed between 1969 and 1999. For any lover of bossa nova or classic Brazilian popular music, this CD is a real treat, with Veloso interpreting beautiful songs by great Brazilian composers such as Tom Jobim, Marcos Valle, Chico Buarque, Ary Barroso, and Fernando Lobo. There is also a very interesting interpretation of Michael Jackson's famous hit "Billy Jean," transformed by Veloso into a lovely bossa nova. This CD showcases Veloso's supreme talent as an interpreter, more than as a composer, as only two of the tracks are his own compositions -- the beautiful "Lindeza" and "Desde que o Samba É Samba" (which is a duet with Gilberto Gil).
~ Philip Jandovský, All Music Guide
 
Лог извлечения EAC
Exact Audio Copy V0.99 prebeta 4 from 23. January 2008
Отчёт EAC об извлечении, выполненном 14. сентября 2009, 14:15
Caetano Veloso / A Bossa de Caetano
Дисковод: ASUS SDRW-08D1S-U Adapter: 2 ID: 0
Режим чтения : Достоверность
Использование точного потока : Да
Отключение кэша аудио : Да
Использование указателей C2 : Нет
Коррекция смещения при чтении : 667
Способность читать области Lead-in и Lead-out : Да
Заполнение пропущенных сэмплов тишиной : Да
Удаление блоков с тишиной в начале и конце : Нет
При вычислениях CRC использовались нулевые сэмплы : Да
Интерфейс : Встроенный Win32-интерфейс для Win NT/2000
Выходной формат : Внутренние WAV-операции
Формат сэмплов : 44.100 Гц; 16 бит; стерео
TOC извлечённого CD
Трек | Старт | Длительность | Начальный сектор | Конечный сектор
---------------------------------------------------------------------
1 | 0:00.00 | 3:11.22 | 0 | 14346
2 | 3:11.22 | 2:08.55 | 14347 | 24001
3 | 5:20.02 | 5:12.45 | 24002 | 47446
4 | 10:32.47 | 3:16.05 | 47447 | 62151
5 | 13:48.52 | 3:57.20 | 62152 | 79946
6 | 17:45.72 | 1:53.03 | 79947 | 88424
7 | 19:39.00 | 2:53.27 | 88425 | 101426
8 | 22:32.27 | 4:09.13 | 101427 | 120114
9 | 26:41.40 | 3:02.35 | 120115 | 133799
10 | 29:44.00 | 3:57.65 | 133800 | 151639
11 | 33:41.65 | 3:01.52 | 151640 | 165266
12 | 36:43.42 | 2:56.08 | 165267 | 178474
13 | 39:39.50 | 2:21.40 | 178475 | 189089
14 | 42:01.15 | 3:45.25 | 189090 | 205989
Характеристики диапазона извлечения и сообщения об ошибках
Выбранный диапазон
Имя файла F:\My Documents\Music\Caetano Veloso - A Bossa de Caetano.wav
Пиковый уровень 100.0 %
Качество диапазона 100.0 %
CRC копии 8CEFDD54
Копирование... OK
Ошибок не произошло
AccurateRip: сводка
Трек 1 нет в базе данных
Трек 2 нет в базе данных
Трек 3 нет в базе данных
Трек 4 нет в базе данных
Трек 5 нет в базе данных
Трек 6 нет в базе данных
Трек 7 нет в базе данных
Трек 8 нет в базе данных
Трек 9 нет в базе данных
Трек 10 нет в базе данных
Трек 11 нет в базе данных
Трек 12 нет в базе данных
Трек 13 нет в базе данных
Трек 14 нет в базе данных
Ни одного трека нет в базе AccurateRip
Конец отчёта
По всем вопросам пишите личное сообщение пользователю M0p94ok.
10:22
386
Нет комментариев. Ваш будет первым!