Поиск

(Jazz / Bossa Nova) Antonio Carlos Jobim - 20th Century Masters. The Millennium Collection: The Best of Antonio Carlos Jobim - 2005, FLAC (image+.cue), lossless

Треклист:
Antonio Carlos Jobim - 20th Century Masters. The Millennium Collection:
The Best of Antonio Carlos Jobim Жанр: Jazz / Bossa Nova
Год выпуска диска: March 29, 2005
Производитель диска: USA
Лейбл: HIP-O RECORDS
Католог №: B0008603-02
UPC: 602517258228
Аудио кодек: FLAC
Тип рипа: image+.cue
Битрейт аудио: lossless
Продолжительность: 43:08
Трэклист:
01. The Girl From Ipanema (with Stan Getz/Joao Gilberto) (5:24)
02. Desafinado (Off Key) (with Stan Getz/Joao Gilberto) (4:13)
03. Só Danço Samba (Jazz Samba) (with Luis Bonfa/Stan Getz) (3:38)
04. Insensatez (How Insensitive) (with Astrud Gilberto/Marty Paich Orchestra) (2:48)
05. Amor Em Paz (Once I Loved) (3:37)
06. Água de Beber (2:51)
07. Samba de Uma Nota Só (One Note Samba) (2:16)
08. Wave (2:53)
09. Tide (4:04)
10. Waters of March (Aguas de Março) (3:57)
11. Corcovado (Quiet Nights Of Quiet Stars) (3:51)
12. Passarim (3:36)

Доп. информация:
Песни, собранные вместе, с разных альбомов, показывают, каким был удивительно непревзойденным композитором и исполнителем Антонио Карлош Жобим.
«20th Century Masters - The Best of Antonio Carlos Jobim» (лейбл Hip-O Records) открывается первыми двумя композициями Жобима, записанными в квинтэзирующей босса нове - Стэн Гетцом и Жоао Жилберто (Гетц/Жилберто), до того как он начал свою карьеру. На протяжении 12 трэков, многие песни, определяющие Жобима – малоизвестны. Начиная с «Девушки из Ипанемы» (песня, которая явилась отправной точкой в карьере для обоих Жобима и Аструд Жилберто, донесшая Босса Нову, как популярное мышление) до «Корковадо (Тихие Ночи Тихих Звезд)», песни доказывают талант Жобима, который только прирастал в эмоциональную глубину и необыденность более десяти лет.
Хотя 2/3 материала сфокусированы, подмечу, с начала до середины шестидесятых годов, четыре трэка освещают карьеру 70х-80х гг., как доказательство высших стандартов, всегда являющихся безотказными для Жобима, в обоих случаях: как композитора и исполнителя.
«20th Century Masters - The Best of Antonio Carlos Jobim» отличная коллекция для тех, кто не сильно интересуются изучением работ Жобима, и жанром Босса Нова. (Грэгори МакИнтош)
За перевод отдельное спасибо xaji001
 
Отчёт EAC
Exact Audio Copy V0.99 prebeta 4 from 23. January 2008
Отчёт EAC об извлечении, выполненном 21. февраля 2009, 21:24
Antonio Carlos Jobim / The Best of Antonio Carlos Jobim
Дисковод: Optiarc DVD RW AD-7173A Adapter: 1 ID: 0
Режим чтения : Достоверность
Использование точного потока : Да
Отключение кэша аудио : Да
Использование указателей C2 : Нет
Коррекция смещения при чтении : 48
Способность читать области Lead-in и Lead-out : Нет
Заполнение пропущенных сэмплов тишиной : Да
Удаление блоков с тишиной в начале и конце : Нет
При вычислениях CRC использовались нулевые сэмплы : Да
Интерфейс : Встроенный Win32-интерфейс для Win NT/2000
Выходной формат : Внутренние WAV-операции
Формат сэмплов : 44.100 Гц; 16 бит; стерео
TOC извлечённого CD
Трек | Старт | Длительность | Начальный сектор | Конечный сектор
---------------------------------------------------------------------
1 | 0:00.00 | 5:24.19 | 0 | 24318
2 | 5:24.19 | 4:13.60 | 24319 | 43353
3 | 9:38.04 | 3:38.55 | 43354 | 59758
4 | 13:16.59 | 2:48.35 | 59759 | 72393
5 | 16:05.19 | 3:37.18 | 72394 | 88686
6 | 19:42.37 | 2:51.33 | 88687 | 101544
7 | 22:33.70 | 2:16.26 | 101545 | 111770
8 | 24:50.21 | 2:53.39 | 111771 | 124784
9 | 27:43.60 | 4:04.47 | 124785 | 143131
10 | 31:48.32 | 3:57.73 | 143132 | 160979
11 | 35:46.30 | 3:51.52 | 160980 | 178356
12 | 39:38.07 | 3:36.73 | 178357 | 194629
Характеристики диапазона извлечения и сообщения об ошибках
Выбранный диапазон
Имя файла K:\My Documents\My Music\_flac\The Best of Antonio Carlos Jobim\The Best of Antonio Carlos Jobim.wav
Пиковый уровень 100.0 %
Качество диапазона 99.9 %
CRC копии 43D6BF71
Копирование... OK
Ошибок не произошло
Конец отчёта
 
Album Credits
Album Credits
Performance Credits
Antonio Carlos Jobim Primary Artist, Acoustic Guitar, Guitar, Piano, Harpsichord, Electric Piano, Vocals
Luiz Bonfб Guitar
Phil Bodner Flute, Woodwind
Ron Carter Bass
Jimmy Cleveland Trombone
Richard Davis Bass
Stan Getz Tenor Saxophone
Astrud Gilberto Vocals
Joao Gilberto Guitar, Vocals
Urbie Green Trombone
Hubert Laws Flute
Jerome Richardson Flute, Piccolo
Marvin Stamm Trumpet
Leo Wright Flute
Elis Regina Vocals
George Duvivier Bass
Airto Moreira Percussion, Drums
Milton Banana Drums
Raymond Beckenstein Flute, Piccolo, Woodwind
Paulinho Braga Drums
Danilo Caymmi Flute, Vocals
Claus Ogerman Conductor
Burt Collins Trumpet
Eumir Deodato Conductor
Bernard Eichen Violin
Lewis Eley Violin
Joe Farrell Flute
Paul Gershman Violin
Emanuel Green Violin
Louis Haber Violin
Don Hammond Flute, Woodwind
Harry Lookofsky Violin, Concert Master, Tenor Violin
Julius Held Violin
Paulo Jobim Guitar, Vocals
Leo Kruczek Violin
Joseph Malignaggi Violin
Charles McCracken Cello
Jaques Morelenbaum Cello
Gene Orloff Violin
Joao Palma Percussion, Drums
Romeo Penque Flute, Piccolo, Woodwind
Raoul Poliakin Violin
Dom Um Romao Drums
George Ricci Cello
Bobby Rosengarden Drums
Harvey Shapiro Cello
Joseph Singer French Horn
Claudio Slon Drums
Irving Spice Violin
Louis Stone Violin
Maucha Adnet Vocals
Jose (Bigorna) Carlos Drums
Paulo Ferreira Drums
Bill Hitchcock Conductor
Simone Caymmi Vocals
Elizabeth Jobim Vocals
Paula Morelenbaum Vocals
Abe Kessler Cello
Ana Lontra Jobim Vocals
Marty Paich Orchestra Performing Ensemble
Tommy Williams Jr. Bass
Jerry Dodgion Flute, Woodwind
Technical Credits
Claus Ogerman Arranger, Producer
Aloysio de Oliveira Producer
Eumir Deodato Arranger
Norman Gimbel translation
Antonio Carlos Jobim Arranger, translation
Paulo Jobim Producer, String Arrangements, Woodwind Arrangement
Jaques Morelenbaum Producer
Creed Taylor Producer
William Claxton Liner Notes
Cйsar Camargo Mariano Arranger
Pat Lawrence Executive Producer
Рип мой. Обложка присутствует!
По всем вопросам пишите личное сообщение пользователю M0p94ok.
05:07
239
Нет комментариев. Ваш будет первым!