Вы используете незарегистрированную версию компонента "Вкладки"!

Поиск

(Jazz, Bop, Vocal Jazz) Benjamin Legrand - Sings Michel Legrand - 2005, FLAC (image+.cue), lossless

(Jazz, Bop, Vocal Jazz) Benjamin Legrand - Sings Michel Legrand - 2005, FLAC (image+.cue), lossless
Треклист:
Benjamin Legrand - Sings Michel Legrand
Жанр: Jazz, Bop, Vocal Jazz
Год выпуска диска: 2005
Производитель диска: Россия
Аудио кодек: FLAC
Тип рипа: image+.cue
Битрейт аудио: lossless
Продолжительность: 70:14
Трэклист:
1. Les Baladins Du Siecle D'aujourd'hui
2. Une Rase, Un Amour, Une Vie
3. Faudrait D'abord Aimer
4. La Fille Du Vent (Duo Avec Natasha Atlas)
5. Bonne Prise
6. Ne Laisse Pas Mourir Venise
7. La Fille Au Scooter
8. Au Pays De Tes Bras
9. Mais Qu'est-Ce Que T'as Dans La Tete
10. La Nouvelle-Orleans
11. Filles De Feu
12. Dans L'orage Ou Le Soleil
13. Avant Le Jazz
14. J'suis Un Enfant De La Balle (Bonus Track)
15. L'amour En Scie (Bonus Track)
16. How Dn You Keep The Music Playing (Duo Avec Michel Legrand) (Bonus Track)
Отчёт EAC:
 
скрытый текст
Exact Audio Copy V0.99 prebeta 5 from 4. May 2009
EAC extraction logfile from 10. January 2010, 14:31
Benjamin Legrand / Sings Michel Legrand
Used drive : Optiarc DVD RW AD-7173A Adapter: 4 ID: 0
Read mode : Secure
Utilize accurate stream : Yes
Defeat audio cache : Yes
Make use of C2 pointers : No
Read offset correction : 48
Overread into Lead-In and Lead-Out : No
Fill up missing offset samples with silence : Yes
Delete leading and trailing silent blocks : No
Null samples used in CRC calculations : Yes
Used interface : Native Win32 interface for Win NT & 2000
Used output format : User Defined Encoder
Selected bitrate : 1024 kBit/s
Quality : High
Add ID3 tag : No
Command line compressor : F:\Programmes\Audio\flac-1.2.1-win\bin\flac.exe
Additional command line options : -8 -V -T "ARTIST=%a" -T "TITLE=%t" -T "ALBUM=%g" -T "DATE=%y" -T "TRACKNUMBER=%n" -T "GENRE=%m" -T "COMMENT=EAC FLAC -8" %s
TOC of the extracted CD
Track | Start | Length | Start sector | End sector
---------------------------------------------------------
1 | 0:00.00 | 5:24.00 | 0 | 24299
2 | 5:24.00 | 4:28.20 | 24300 | 44419
3 | 9:52.20 | 5:40.07 | 44420 | 69926
4 | 15:32.27 | 4:34.00 | 69927 | 90476
5 | 20:06.27 | 5:42.08 | 90477 | 116134
6 | 25:48.35 | 5:58.57 | 116135 | 143041
7 | 31:47.17 | 5:12.15 | 143042 | 166456
8 | 36:59.32 | 4:14.03 | 166457 | 185509
9 | 41:13.35 | 2:53.72 | 185510 | 198556
10 | 44:07.32 | 3:10.63 | 198557 | 212869
11 | 47:18.20 | 3:06.17 | 212870 | 226836
12 | 50:24.37 | 3:59.60 | 226837 | 244821
13 | 54:24.22 | 4:04.28 | 244822 | 263149
14 | 58:28.50 | 3:35.67 | 263150 | 279341
15 | 62:04.42 | 3:36.65 | 279342 | 295606
16 | 65:41.32 | 4:31.20 | 295607 | 315951
Range status and errors
Selected range
Filename D:\Downloads\Benjamin Legrand - Sings Michel Legrand\Benjamin Legrand - Sings Michel Legrand.wav
Peak level 100.0 %
Range quality 99.9 %
Test CRC 480E6E77
Copy CRC 480E6E77
Copy OK
No errors occurred
AccurateRip summary
Track 1 not present in database
Track 2 not present in database
Track 3 not present in database
Track 4 not present in database
Track 5 not present in database
Track 6 not present in database
Track 7 not present in database
Track 8 not present in database
Track 9 not present in database
Track 10 not present in database
Track 11 not present in database
Track 12 not present in database
Track 13 not present in database
Track 14 not present in database
Track 15 not present in database
Track 16 not present in database
None of the tracks are present in the AccurateRip database
End of status report
Доп. информация:
Сольный альбом Бенжамина Леграна (Benjamin Legrand), сына Мишеля Леграна (Michel Legrand) - французского композитора, виртуоза джазовой и классической фортепианной музыки, аранжировщика и дирижера, обладателя "Оскаров" и "Грэмми", автора музыки к кинофильму "Шербурские зонтики". Бенжамин исполняет песни своего прославленного отца. В записи пластинки принимали участие сам Мишель Легран и Наташа Атлас (Natacha Atlas).
К данному изданию прилагается буклет с текстами песен.
Any questions - support@pro-jazz.com. Есть вопросы - support@pro-jazz.com
14:59
309
Нет комментариев. Ваш будет первым!