Поиск

(Jazz Bop) Charlie Parker - The Definitive - 2000, FLAC (tracks+.cue), lossless

Треклист:
Charlie Parker - The Definitive
Жанр: Jazz Bop
Год выпуска диска: 2000
Производитель диска: USA
Аудио кодек: FLAC
Тип рипа: tracks+.cue
Битрейт аудио: lossless
Продолжительность: 49 мин.
Трэклист:
01 SEPIAN BOUNCE 3:07
02 SALT PEANUTS 3:12
03 HOT HOUSE 3:09
04 KOKO 253
05 ANTHROPOLOGY 2:54
06 NOW'S THE TIME 3:14
07 ORNITHOLOGY 2:57
08 YARDBIRD SUITE 2:53
09 LOVER MAN 3:17
10 RELAXIN' AT CAMARILLO 2:10
11 EMBRACEABLE YOU 3:43
12 SCRAPPLE FROM THE APPLE 2:54
13 PARKER'S MOOD 3:10
14 JUST FRIENDS з:зо
15 STAR EYES 3:34
16 CONFIRMATION 2:57
This compilation 2000 The Verve Music Group, a Division of UMG Recording. Inc. California 91608
Printed in the USA.
ПОСЛУШАТЬ
http://www.amazon.com/Charlie-Parker-Ken-Burnss-Jazz/dp/B001O4V4EW/ref=sr_1_1?ie=...67528&sr=8-1
 
ИСПОЛНИТЕЛИ
Charlie Parker, alto saxophone with featured
Personnel:
Miles Davis, Dizzy Gillespie, Howard McGhee, trumpet;
Wardll Gray, Lucky Thompson, tenor saxophone;
Walter Bishop, Jr.. Al Haig, Sadik Hakim. Duke Jordan. John Lewis, Dodo Marmarosa, Jay McShann, piano; Barney KesseI. guitar;
Red Callender, Percy Heath, Teddy Kotick, Tommy Potter, Curly Russell, bass;
Sid Catlett, Buddy Rich, Max Roach, drums;
plus additional personnel listed on inside of booklet.
 
 
Отчет EAC
Exact Audio Copy V0.99 prebeta 5 from 4. May 2009
Отчёт EAC об извлечении, выполненном 8. декабря 2009, 11:01
Charlie Parker / Ken Burns Jazz: The Definitive Charlie Parker
Дисковод: PIONEER DVD-RW DVR-216D Adapter: 3 ID: 1
Режим чтения : Достоверность
Использование точного потока : Да
Отключение кэша аудио : Да
Использование указателей C2 : Нет
Коррекция смещения при чтении : 96
Способность читать области Lead-in и Lead-out : Нет
Заполнение пропущенных сэмплов тишиной : Да
Удаление блоков с тишиной в начале и конце : Нет
При вычислениях CRC использовались нулевые сэмплы : Да
Интерфейс : Встроенный Win32-интерфейс для Win NT/2000
Обработка зазоров : Добавлено к предыдущему треку
Выходной формат : Пользовательский кодировщик
Выбранный битрейт : 1024 kBit/s
Качество : Высокий
Добавление ID3-тэга : Нет
Утилита сжатия : C:\Program Files\Exact Audio Copy\FLAC\FLAC.EXE
Дополнительные параметры : -6 -V -T "ARTIST=%a" -T "TITLE=%t" -T "ALBUM=%g" -T "DATE=%y" -T "TRACKNUMBER=%n" -T "GENRE=%m" -T "COMMENT=%e" %s -o %d
TOC извлечённого CD
Трек | Старт | Длительность | Начальный сектор | Конечный сектор
---------------------------------------------------------------------
1 | 0:00.00 | 3:09.32 | 0 | 14206
2 | 3:09.32 | 3:15.43 | 14207 | 28874
3 | 6:25.00 | 3:13.00 | 28875 | 43349
4 | 9:38.00 | 2:56.00 | 43350 | 56549
5 | 12:34.00 | 2:56.70 | 56550 | 69819
6 | 15:30.70 | 3:17.65 | 69820 | 84659
7 | 18:48.60 | 3:01.02 | 84660 | 98236
8 | 21:49.62 | 2:55.70 | 98237 | 111431
9 | 24:45.57 | 3:20.35 | 111432 | 126466
10 | 28:06.17 | 3:01.73 | 126467 | 140114
11 | 31:08.15 | 3:46.52 | 140115 | 157116
12 | 34:54.67 | 2:57.25 | 157117 | 170416
13 | 37:52.17 | 3:04.30 | 170417 | 184246
14 | 40:56.47 | 3:32.45 | 184247 | 200191
15 | 44:29.17 | 3:37.20 | 200192 | 216486
16 | 48:06.37 | 2:56.60 | 216487 | 229746
Трек 1
Имя файла D:\Sound\Chrlie Parker\01 - Sepian Bounce [1942].wav
Длина предзазора 0:00:02.00
Пиковый уровень 99.6 %
Качество трека 100.0 %
CRC теста F047330B
CRC копии F047330B
Точное извлечение (достоверность 32) [0878059B]
Копирование... OK
Трек 2
Имя файла D:\Sound\Chrlie Parker\02 - Salt Peanuts [1945].wav
Длина предзазора 0:00:02.42
Пиковый уровень 86.8 %
Качество трека 99.9 %
CRC теста 5A6279A2
CRC копии 5A6279A2
Точное извлечение (достоверность 32) [6D7326EE]
Копирование... OK
Трек 3
Имя файла D:\Sound\Chrlie Parker\03 - Hot House [1945].wav
Длина предзазора 0:00:03.10
Пиковый уровень 100.0 %
Качество трека 100.0 %
CRC теста 97E1D424
CRC копии 97E1D424
Точное извлечение (достоверность 32) [F56D81F7]
Копирование... OK
Трек 4
Имя файла D:\Sound\Chrlie Parker\04 - Ko-Ko [1945].wav
Длина предзазора 0:00:03.70
Пиковый уровень 100.0 %
Качество трека 99.9 %
CRC теста 363A90EA
CRC копии 363A90EA
Точное извлечение (достоверность 32) [20F354CD]
Копирование... OK
Трек 5
Имя файла D:\Sound\Chrlie Parker\05 - Anthropology [1945].wav
Длина предзазора 0:00:03.05
Пиковый уровень 98.9 %
Качество трека 100.0 %
CRC теста E95F8DE4
CRC копии E95F8DE4
Точное извлечение (достоверность 33) [995BC400]
Копирование... OK
Трек 6
Имя файла D:\Sound\Chrlie Parker\06 - Now's the Time [1945].wav
Длина предзазора 0:00:02.53
Пиковый уровень 93.4 %
Качество трека 100.0 %
CRC теста 67C50ADF
CRC копии 67C50ADF
Точное извлечение (достоверность 32) [4F2EF3BE]
Копирование... OK
Трек 7
Имя файла D:\Sound\Chrlie Parker\07 - Ornithology [1946].wav
Длина предзазора 0:00:03.28
Пиковый уровень 99.6 %
Качество трека 100.0 %
CRC теста D4ADDF63
CRC копии D4ADDF63
Точное извлечение (достоверность 32) [AA818B21]
Копирование... OK
Трек 8
Имя файла D:\Sound\Chrlie Parker\08 - Yardbird Suite [1946].wav
Длина предзазора 0:00:03.55
Пиковый уровень 91.6 %
Качество трека 100.0 %
CRC теста 423BAA81
CRC копии 423BAA81
Точное извлечение (достоверность 32) [4CB38D9C]
Копирование... OK
Трек 9
Имя файла D:\Sound\Chrlie Parker\09 - Lover Man [1946].wav
Длина предзазора 0:00:03.20
Пиковый уровень 100.0 %
Качество трека 100.0 %
CRC теста C9D1F0DA
CRC копии C9D1F0DA
Точное извлечение (достоверность 31) [DB3252B8]
Копирование... OK
Трек 10
Имя файла D:\Sound\Chrlie Parker\10 - Relaxin' at Camarillo [1947].wav
Длина предзазора 0:00:03.30
Пиковый уровень 93.3 %
Качество трека 99.9 %
CRC теста 90E023B1
CRC копии 90E023B1
Точное извлечение (достоверность 31) [33D59A43]
Копирование... OK
Трек 11
Имя файла D:\Sound\Chrlie Parker\11 - Embraceable You [1947].wav
Длина предзазора 0:00:03.28
Пиковый уровень 99.6 %
Качество трека 100.0 %
CRC теста B2BE21AB
CRC копии B2BE21AB
Точное извлечение (достоверность 30) [DA2BA3C8]
Копирование... OK
Трек 12
Имя файла D:\Sound\Chrlie Parker\12 - Scrapple from the Apple [1947].wav
Длина предзазора 0:00:03.55
Пиковый уровень 100.0 %
Качество трека 99.9 %
CRC теста C2247F06
CRC копии C2247F06
Точное извлечение (достоверность 32) [94819037]
Копирование... OK
Трек 13
Имя файла D:\Sound\Chrlie Parker\13 - Parker's Mood [1948].wav
Длина предзазора 0:00:03.10
Пиковый уровень 87.0 %
Качество трека 100.0 %
CRC теста B4DF790E
CRC копии B4DF790E
Точное извлечение (достоверность 31) [88168324]
Копирование... OK
Трек 14
Имя файла D:\Sound\Chrlie Parker\14 - Just Friends [1949].wav
Длина предзазора 0:00:03.05
Пиковый уровень 100.0 %
Качество трека 100.0 %
CRC теста D0F733DF
CRC копии D0F733DF
Точное извлечение (достоверность 31) [8792A477]
Копирование... OK
Трек 15
Имя файла D:\Sound\Chrlie Parker\15 - Star Eyes [1951].wav
Длина предзазора 0:00:02.70
Пиковый уровень 99.6 %
Качество трека 100.0 %
CRC теста D6BCA200
CRC копии D6BCA200
Точное извлечение (достоверность 30) [26EB03A2]
Копирование... OK
Трек 16
Имя файла D:\Sound\Chrlie Parker\16 - Confirmation [1953].wav
Длина предзазора 0:00:02.72
Пиковый уровень 93.4 %
Качество трека 100.0 %
CRC теста 01629158
CRC копии 01629158
Точное извлечение (достоверность 28) [BCEAD1EC]
Копирование... OK
Все треки извлечены точно
Ошибок не произошло
Конец отчёта
По всем вопросам пишите личное сообщение пользователю M0p94ok.
02:37
337
Нет комментариев. Ваш будет первым!