Поиск

(Jazz, Bop) [CD] Milt Jackson & Sonny Stitt - In the Beginning - 1991, FLAC (image+.cue), lossless

(Jazz, Bop) [CD] Milt Jackson & Sonny Stitt - In the Beginning - 1991, FLAC (image+.cue), lossless
Треклист:
Milt Jackson & Sonny Stitt / In the Beginning
Жанр: Jazz, Bop
Носитель: CD
Страна-производитель диска (релиза): EU
Год издания: 1991
Издатель (лейбл): Galaxy Records
Номер по каталогу: LC15025
Страна исполнителя (группы): USA
Аудиокодек: FLAC (*.flac)
Тип рипа: image+.cue
Битрейт аудио: lossless
Продолжительность: 43:31
Источник (релизер): itr
Наличие сканов в содержимом раздачи: да
Треклист:
1. Body and Soul (Frank Eyton/Johnny Green/Edward Heyman/Robert Sour) 2:24
2. 3rd Song (Silver Slipper) (Sonny Stitt) 2:19
3. Red Shoes (Sonny Stitt) 2:22
4. Be Bop Blues (Sonny Stitt) 2:15
5. Royal Wedding (Sonny Stitt) 2:28
6. Fine and Dandy (Paul James/Kay Swift) 2:24
7. Stardust (Hoagy Carmichael/Mitchell Parish) 2:18
8. Ratio And Proportion (Sonny Stitt) 2:17
9. Slits (Milt Jackson) 2:36
10. Baggy Eyes (Milt Jackson) 2:27
11. In A Beautiful Mood (Milt Jackson) 3:00
12. Baggy's Blues (Milt Jackson) 2:44
13. Suade Jacket (Russell Jacquet/J.J. Johnson) 2:57
14. Suade Jacket Alt. Take (Russell Jacquet/J.J. Johnson) 2:53
15. Lion's Roar (Russell Jacquet) 2:52
16. Scamper Roo (Russell Jacquet/J.J. Johnson) 2:53
17. Relaxin' (Russell Jacquet/Sonny Stitt) 2:14
 
Содержание индексной карты (.CUE)
REM GENRE Jazz
REM DATE 1948
REM DISCID F00A3211
REM COMMENT "ExactAudioCopy v1.0b3"
CATALOG 0025218177122
PERFORMER "Milt Jackson & Sonny Stitt"
TITLE "In The Beginning"
FILE "Milt Jackson & Sonny Stitt - In The Beginning.flac" WAVE
TRACK 01 AUDIO
TITLE "Body and Soul"
PERFORMER "Milt Jackson & Sonny Stitt"
ISRC GBBHN9400115
INDEX 01 00:00:00
TRACK 02 AUDIO
TITLE "3rd Song (Silver Slipper)"
PERFORMER "Milt Jackson & Sonny Stitt"
ISRC GBBHN0300409
INDEX 00 02:21:67
INDEX 01 02:24:42
TRACK 03 AUDIO
TITLE "Red Shoes"
PERFORMER "Milt Jackson & Sonny Stitt"
ISRC GBBHN9400114
INDEX 00 04:42:35
INDEX 01 04:44:10
TRACK 04 AUDIO
TITLE "Be Bop Blues"
PERFORMER "Milt Jackson & Sonny Stitt"
ISRC GBBHN9400118
INDEX 00 07:04:20
INDEX 01 07:06:20
TRACK 05 AUDIO
TITLE "Royal Wedding"
PERFORMER "Milt Jackson & Sonny Stitt"
ISRC GBBHN9400117
INDEX 00 09:19:12
INDEX 01 09:21:32
TRACK 06 AUDIO
TITLE "Fine and Dandy"
PERFORMER "Milt Jackson & Sonny Stitt"
ISRC GBBHN9400119
INDEX 00 11:46:27
INDEX 01 11:49:45
TRACK 07 AUDIO
TITLE "Stardust"
PERFORMER "Milt Jackson & Sonny Stitt"
ISRC GBBHN9400113
INDEX 00 14:11:15
INDEX 01 14:14:10
TRACK 08 AUDIO
TITLE "Ratio And Proportion"
PERFORMER "Milt Jackson & Sonny Stitt"
ISRC GBBHN9400116
INDEX 00 16:30:25
INDEX 01 16:32:37
TRACK 09 AUDIO
TITLE "Slits"
PERFORMER "Milt Jackson & Sonny Stitt"
ISRC GBBHN9400097
INDEX 00 18:48:32
INDEX 01 18:50:15
TRACK 10 AUDIO
TITLE "Baggy Eyes"
PERFORMER "Milt Jackson & Sonny Stitt"
ISRC GBBHN9400098
INDEX 00 21:24:15
INDEX 01 21:26:50
TRACK 11 AUDIO
TITLE "In A Beautiful Mood"
PERFORMER "Milt Jackson & Sonny Stitt"
ISRC GBBHN9400096
INDEX 00 23:51:45
INDEX 01 23:54:02
TRACK 12 AUDIO
TITLE "Baggy's Blues"
PERFORMER "Milt Jackson & Sonny Stitt"
ISRC GBBHN9400095
INDEX 00 26:51:07
INDEX 01 26:54:20
TRACK 13 AUDIO
TITLE "Suade Jacket"
PERFORMER "Milt Jackson & Sonny Stitt"
ISRC GBBHN9400110
INDEX 00 29:36:40
INDEX 01 29:39:17
TRACK 14 AUDIO
TITLE "Suade Jacket Alt. Take"
PERFORMER "Milt Jackson & Sonny Stitt"
ISRC GBBHN9400111
INDEX 00 32:34:20
INDEX 01 32:36:67
TRACK 15 AUDIO
TITLE "Lion's Roar"
PERFORMER "Milt Jackson & Sonny Stitt"
ISRC GBBHN9400109
INDEX 00 35:27:70
INDEX 01 35:30:62
TRACK 16 AUDIO
TITLE "Scamper Roo"
PERFORMER "Milt Jackson & Sonny Stitt"
ISRC GBBHN9400112
INDEX 00 38:19:12
INDEX 01 38:23:02
TRACK 17 AUDIO
TITLE "Relaxin'"
PERFORMER "Milt Jackson & Sonny Stitt"
ISRC GBBHN9400108
INDEX 00 41:13:57
INDEX 01 41:16:22
 
Лог проверки качества
-----------------------
DON'T MODIFY THIS FILE
-----------------------
PERFORMER: auCDtect Task Manager, ver. 1.6.0 RC1 build 1.6.0.1
Copyright (c) 2008-2010 y-soft. All rights reserved
http://y-soft.org
ANALYZER: auCDtect: CD records authenticity detector, version 0.8.2
Copyright (c) 2004 Oleg Berngardt. All rights reserved.
Copyright (c) 2004 Alexander Djourik. All rights reserved.
FILE: Milt Jackson & Sonny Stitt - In The Beginning.flac
Size: 138766537 Hash: 5B23CBF00B9EC8A31796F8320B5C03A2 Accuracy: -m0
Conclusion: CDDA 99%
Signature: 4C05FA44BF3E5ADB957617D131E7973613CDD49E
 
Об альбоме (сборнике)
This is a very interesting CD, particularly for bop collectors, since it contains very rare early performances by altoist Sonny Stitt and vibraphonist Milt Jackson; some of the titles were originally under trumpeter Russell Jacquet's name. There are eight songs by a quintet with Stitt, Jacquet and pianist Sir Charles Thompson, what could be considered the first Modern Jazz Quartet records (actually a quintet with Milt Jackson, pianist John Lewis, drummer Kenny Clarke, bassist Al Jackson and Chano Pozo on congas) and five songs from a septet with Jacquet, Stitt, trombonist J.J. Johnson and baritonist Leo Parker. Recorded in Detroit for the tiny Galaxy label, these performances are not essential but they do give listeners an early glimpse at the future stars.
- by Scott Yanow, AMG
 
Состав
#1-8:
SONNY STITT — alto sax
RUSSELL JACQUET — trumpet
SIR CHARLES THOMPSON — piano
UNKNOWN — bass and drums
#9-12:
MILT JACKSON — vibes
JOHN LEWIS — piano
AL JACKSON — bass
KENNY CLARKE — drums
CHANO POZO — conga
#13-17:
SONNY STITT — alto sax
J.J. JOHNSON — trombone
LEO PARKER — baritone sax
RUSSELL JACQUET — trumpet
SIR CHARLES THOMPSON — piano
UNKNOWN — bass and drums
Приватный:
Нет (DHT включён)
Размер:
134.21 Мб (140,731,864 байт) » файлов: 11
Участники:
0 раздают, 0 качают (0 участников всего)
Внешние участники:
1 раздают, 0 качают (1 участников всего) [ Обновить ]
For power users only: no seeders - write to support@pro-jazz.com. Для power user: нет сидеров - пишите на support@pro-jazz.com.
18:31
118
Нет комментариев. Ваш будет первым!