Поиск

(Jazz / Bop / Avant-Garde) The Very Best Of Charles Mingus — 2001, FLAC (tracks)

Треклист:
The Very Best Of
Charles Mingus
Atlantic Jazz Gallery
Label: Atlantic / Rhino
Жанр: Jazz / Bop / Avant-Garde
Год выпуска: 2001
Формат: FLAC (tracks)
Битрейт аудио: lossless
Продолжительность:75:56
Трэклист:
1. Pithecanthropus Erectus
2. Profile Of Jackie
3. Tonight At Noon
4. Haitian Fight Song
5. Reincarnation Of A Lovebird
6. Moanin'
7. Cryin'
8. Wednesday Night Prayer Meeting
9. Ecclusiastics
Доп. информация:
В комплекте фото ковриков (HR)
 
скрытый текст
Отчёт EAC об извлечении, выполненном 29. апреля 2008, 14:27 для диска:
Charles Mingus / The Very Best Of Charles Mingus
Дисковод: TSSTcorpCDDVDW SH-S203D Adapter: 2 ID: 1
Режим чтения: Достоверный (C2: нет, Точный поток: да, Отключение кэша: да)
Коррекция смещения при чтении: 6
Способность читать области Lead-in и Lead-out : Нет
Выходной формат: Внутренние WAV-операции
44.100 Гц; 16 бит; стерео
Другие параметры:
Заполнение пропущенных сэмплов тишиной : Да
Удаление блоков с тишиной в начале и конце : Нет
Встроенный Win32-интерфейс для Win NT/2000
Трек 1
Имя файла D:\Music\RIP\(01) Pithecanthropus Erectus - Charles Mingus.wav
Пиковый уровень 97.2 %
Качество трека 100.0 %
CRC теста B28CA1F1
CRC копии B28CA1F1
Копирование... OK
Трек 2
Имя файла D:\Music\RIP\(02) Profile Of Jackie - Charles Mingus.wav
Пиковый уровень 51.1 %
Качество трека 100.0 %
CRC теста 55C5CE1F
CRC копии 55C5CE1F
Копирование... OK
Трек 3
Имя файла D:\Music\RIP\(03) Tonight At Noon - Charles Mingus.wav
Пиковый уровень 68.9 %
Качество трека 100.0 %
CRC теста 2246DBED
CRC копии 2246DBED
Копирование... OK
Трек 4
Имя файла D:\Music\RIP\(04) Haitian Fight Song - Charles Mingus.wav
Пиковый уровень 75.8 %
Качество трека 100.0 %
CRC теста E832C388
CRC копии E832C388
Копирование... OK
Трек 5
Имя файла D:\Music\RIP\(05) Reincarnation Of A Lovebird - Charles Mingus.wav
Пиковый уровень 85.4 %
Качество трека 99.9 %
CRC теста 6BEC5721
CRC копии 6BEC5721
Копирование... OK
Трек 6
Имя файла D:\Music\RIP\(06) Moanin' - Charles Mingus.wav
Пиковый уровень 85.1 %
Качество трека 100.0 %
CRC теста 77E8EDBF
CRC копии 77E8EDBF
Копирование... OK
Трек 7
Имя файла D:\Music\RIP\(07) Cryin' Blues - Charles Mingus.wav
Пиковый уровень 75.8 %
Качество трека 99.9 %
CRC теста 71C68E37
CRC копии 71C68E37
Копирование... OK
Трек 8
Имя файла D:\Music\RIP\(08) Wednesday Night Prayer Meeting - Charles Mingus.wav
Пиковый уровень 94.6 %
Качество трека 100.0 %
CRC теста 053403AD
CRC копии 053403AD
Копирование... OK
Трек 9
Имя файла D:\Music\RIP\(09) Ecclusiastics - Charles Mingus.wav
Пиковый уровень 88.2 %
Качество трека 100.0 %
CRC теста BD9536AB
CRC копии BD9536AB
Копирование... OK
Трек 10
Имя файла D:\Music\RIP\(10) Passions Of A Man - Charles Mingus.wav
Пиковый уровень 97.2 %
Качество трека 100.0 %
CRC теста 5C4FFB34
CRC копии 5C4FFB34
Копирование... OK
Трек 11
Имя файла D:\Music\RIP\(11) Wham Bam Thank You Ma'am - Charles Mingus.wav
Пиковый уровень 85.9 %
Качество трека 100.0 %
CRC теста 40AB5AB6
CRC копии 40AB5AB6
Копирование... OK
Ошибок не произошло
Конец отчёта
Приватный:
Нет (DHT включён)
Размер:
441.17 Мб (462,598,816 байт) » файлов: 17
Участники:
0 раздают, 0 качают (0 участников всего)
Внешние участники:
3 раздают, 1 качают (4 участников всего) [ Обновить ]
For power users only: no seeders - write to support@pro-jazz.com. Для power user: нет сидеров - пишите на support@pro-jazz.com.
00:46
77
Нет комментариев. Ваш будет первым!