Поиск

(Jazz, Bop, Afro-Cuban Jazz) The Dizzy Gillespie Big 7 - At The Montreux Jazz Festival 1975 - 1992, APE (image+.cue), lossless

(Jazz, Bop, Afro-Cuban Jazz) The Dizzy Gillespie Big 7 - At The Montreux Jazz Festival 1975 - 1992, APE (image+.cue), lossless
Треклист:
The Dizzy Gillespie Big 7 / At The Montreux Jazz Festival 1975
Жанр: Jazz , Bop , Afro-Cuban Jazz
Страна-производитель диска: USA
Год издания диска: 1992
Издатель (лейбл): Pablo
Номер по каталогу: Pablo OJCCD-739-2 (2310-749)
Аудиокодек: APE (*.ape)
Тип рипа: image+.cue
Битрейт аудио: lossless
Продолжительность: 56:01
Источник (релизер): Собственный диск
Наличие сканов в содержимом раздачи: да
Треклист:
1.Lover, Come Back to Me
2.I'll Remember April
3.What's New
4.Cherokee
Recorded live at the Montreux Jazz Festival, Montreux, Switzerland on July 16, 1975
 
Лог создания рипа
Exact Audio Copy V0.99 prebeta 4 from 23. January 2008
EAC extraction logfile from 7. September 2011, 11:18
Dizzy Gillespie / The Dizzy Gillespie Big 7 - At the Montreux Jazz Festival 1975
Used drive : Optiarc DVD RW AD-7203A Adapter: 3 ID: 0
Read mode : Secure
Utilize accurate stream : Yes
Defeat audio cache : Yes
Make use of C2 pointers : No
Read offset correction : 48
Overread into Lead-In and Lead-Out : No
Fill up missing offset samples with silence : Yes
Delete leading and trailing silent blocks : No
Null samples used in CRC calculations : Yes
Used interface : Installed external ASPI interface
Used output format : Monkey's Audio Lossless Encoder
Selected bitrate : Normal Lossless Compression
Quality : High
Add ID3 tag : No
Command line compressor : C:\Program Files\Monkey's Audio\MAC.exe
Additional command line options : -v
TOC of the extracted CD
Track | Start | Length | Start sector | End sector
---------------------------------------------------------
1 | 0:00.00 | 16:43.35 | 0 | 75259
2 | 16:43.35 | 16:02.72 | 75260 | 147481
3 | 32:46.32 | 12:13.33 | 147482 | 202489
4 | 44:59.65 | 11:02.00 | 202490 | 252139
Range status and errors
Selected range
Filename G:\UP\Dizzy Gillespie - The Dizzy Gillespie Big 7 - At the Montreux Jazz Festival 1975.wav
Peak level 100.0 %
Range quality 100.0 %
Test CRC 8DC340F7
Copy CRC 8DC340F7
Copy OK
No errors occurred
AccurateRip summary
Track 1 accurately ripped (confidence 4) [3604DCA8]
Track 2 accurately ripped (confidence 4) [C4103821]
Track 3 accurately ripped (confidence 5) [3178BDDC]
Track 4 accurately ripped (confidence 5) [753AC018]
All tracks accurately ripped
End of status report
 
Содержание индексной карты (.CUE)
REM GENRE Jazz
REM DATE 1975
REM DISCID 2A0D2104
REM COMMENT "ExactAudioCopy v0.99pb4"
PERFORMER "Dizzy Gillespie"
TITLE "The Dizzy Gillespie Big 7 - At the Montreux Jazz Festival 1975"
FILE "Dizzy Gillespie - The Dizzy Gillespie Big 7 - At the Montreux Jazz Festival 1975.ape" WAVE
TRACK 01 AUDIO
TITLE "Lover Come Back To Me"
PERFORMER "Dizzy Gillespie"
INDEX 01 00:00:00
TRACK 02 AUDIO
TITLE "I'll Remeber April"
PERFORMER "Dizzy Gillespie"
INDEX 00 16:42:17
INDEX 01 16:43:35
TRACK 03 AUDIO
TITLE "What's New?"
PERFORMER "Dizzy Gillespie"
INDEX 00 32:45:70
INDEX 01 32:46:32
TRACK 04 AUDIO
TITLE "Cherokee"
PERFORMER "Dizzy Gillespie"
INDEX 01 44:59:65
 
Об альбоме (сборнике)
A good but not great set from the 1975 Montreux Jazz Festival, this set of four extended standards is nonetheless impressive for its complete rejection of all innovations in jazz after around 1955, even those that Dizzy Gillespie had himself spearheaded. This is a straight-up bop jam session. The tunes are standards almost to the point of being clichés — "Lover, Come Back to Me," "I'll Remember April," "What's New?," and the obligatory run-through of Charlie Parker's signature tune, "Cherokee" — but Gillespie and his all-star group do an impressive job of finding new avenues of exploration. The 17-minute take on "Lover Come Back to Me" is particularly impressive, with meaty solos from both Gillespie and tenor Eddie "Lockjaw" Davis. The ballad "What's New?" is primarily a showcase for Milt Jackson's vibes and Tommy Flanagan's piano, though Johnny Griffin also serves up a lovely tenor solo. Like the song selection, the playing is solid but not particularly far-reaching. There are many moments that elicit grins of pleasure, but none that cause jaws to gape with astonishment. ~ Stewart Mason, All Music Guide
 
Состав
Bass – Niels-Henning Ørsted Pedersen
Drums – Mickey Roker
Piano – Tommy Flanagan
Producer – Norman Granz
Saxophone [Tenor] – Eddie "Lockjaw" Davis, Johnny Griffin
Trumpet – Dizzy Gillespie
Vibraphone – Milt Jackson
23:04
254
Нет комментариев. Ваш будет первым!