Поиск

(Jazz-Blues,Vocal,Guitar) Jon Herington/feat.Jim Beard/ - Shine(shine Shine) - 2010, APE (image+.cue) lossless

Треклист:
Jon Herington/feat.Jim Beard/ / Shine(shine Shine)
Жанр: Jazz-Blues,Vocal,Guitar
Страна-производитель диска: USA
Год издания диска: 2010
Издатель (лейбл): Decorator Records
Страна: USA
Аудио кодек: APE (*.ape)
Тип рипа: image+.cue
Битрейт аудио: lossless
Продолжительность: 00:50:31
Источник (релизер): Рип из личного архива
Наличие сканов в содержимом раздачи: да
Треклист:
1.The Only Fool
2.Fabulous
3.Thirteen Feet Of Rain
4.Up For Grabs
5.She Reminded Me Of You
6.In Love With Love
7.Say You'll Stay
8.Dreaming
9.Everything
10.Aveline
11.Hars Light
 
Лог создания рипа
Exact Audio Copy V0.99 prebeta 4 from 23. January 2008
Отчёт EAC об извлечении, выполненном 8. января 2011, 16:02
Jon Herington / Shine(shine Shine)
Дисковод: _NEC DVD_RW ND-2510A Adapter: 1 ID: 0
Режим чтения : Достоверность
Использование точного потока : Да
Отключение кэша аудио : Да
Использование указателей C2 : Нет
Коррекция смещения при чтении : 48
Способность читать области Lead-in и Lead-out : Нет
Заполнение пропущенных сэмплов тишиной : Да
Удаление блоков с тишиной в начале и конце : Нет
При вычислениях CRC использовались нулевые сэмплы : Да
Интерфейс : Встроенный Win32-интерфейс для Win NT/2000
Выходной формат : Внутренние WAV-операции
Формат сэмплов : 44.100 Гц; 16 бит; стерео
TOC извлечённого CD
Трек | Старт | Длительность | Начальный сектор | Конечный сектор
---------------------------------------------------------------------
1 | 0:00.00 | 4:40.14 | 0 | 21013
2 | 4:40.14 | 5:25.20 | 21014 | 45408
3 | 10:05.34 | 4:06.64 | 45409 | 63922
4 | 14:12.23 | 4:36.40 | 63923 | 84662
5 | 18:48.63 | 6:36.36 | 84663 | 114398
6 | 25:25.24 | 3:57.43 | 114399 | 132216
7 | 29:22.67 | 4:55.24 | 132217 | 154365
8 | 34:18.16 | 3:51.37 | 154366 | 171727
9 | 38:09.53 | 3:13.63 | 171728 | 186265
10 | 41:23.41 | 3:25.28 | 186266 | 201668
11 | 44:48.69 | 5:41.44 | 201669 | 227287
Характеристики диапазона извлечения и сообщения об ошибках
Выбранный диапазон
Имя файла E:\ПРОЕКТ\Jon Herington-Shine(Shine Shine)2010\Jon Herington - Shine(shine Shine).wav
Пиковый уровень 100.0 %
Качество диапазона 100.0 %
CRC теста B5792D53
CRC копии B5792D53
Копирование... OK
Ошибок не произошло
AccurateRip: сводка
Трек 1 нет в базе данных
Трек 2 нет в базе данных
Трек 3 нет в базе данных
Трек 4 нет в базе данных
Трек 5 нет в базе данных
Трек 6 нет в базе данных
Трек 7 нет в базе данных
Трек 8 нет в базе данных
Трек 9 нет в базе данных
Трек 10 нет в базе данных
Трек 11 нет в базе данных
Ни одного трека нет в базе AccurateRip
Конец отчёта
 
Состав
Jon Herington-guitars,vocals,wurlitzer electric piano,hammond organ
Dennis Espantman-bass,vocals
Frank Pagano-drums
Rob Morsberger-keyboards
Ed Alstrom-hammond organ
Jim Farmer-blues harp
Download available for power users only.
19:48
364
Нет комментариев. Ваш будет первым!