Поиск

(Jazz, Blues, Soul) Henry Johnson with Nancy Wilson - Organic - 2003, FLAC (image+.cue), lossless

(Jazz, Blues, Soul) Henry Johnson with Nancy Wilson - Organic - 2003, FLAC (image+.cue), lossless
Henry Johnson with Nancy Wilson - Organic
Жанр: Jazz, Blues, Soul
Год выпуска диска: 2003
Аудио кодек: FLAC
Тип рипа: image+.cue
Битрейт аудио: lossless
Продолжительность: 1:07:22
Трэклист:
01. It Could Happen to You
02. Know It All
03. If It's the Last Thing I Do
04. Cascavelo
05. Hello Like Before
06. It's About Time
07. A Man Ain't Supposed to Cry
08. My Foolish Heart
09. The More I See You
10. Third Rail
11. It's Alright With Me
12. Blues For James and Dave
13. The Scorcher
14. If It's the Last Thing I Do - (bonus track)
Доп. информация:
 
Log EAC
Exact Audio Copy V0.99 prebeta 5 from 4. May 2009
Отчёт EAC об извлечении, выполненном 3. февраля 2010, 23:44
Henry Johnson / Organic
Дисковод: MATSHITAUJDA755 DVD/CDRW   Adapter: 1  ID: 0
Режим чтения                 : Достоверность
Использование точного потока : Да
Отключение кэша аудио        : Да
Использование указателей C2  : Нет
Коррекция смещения при чтении                     : 102
Способность читать области Lead-in и Lead-out     : Нет
Заполнение пропущенных сэмплов тишиной            : Да
Удаление блоков с тишиной в начале и конце        : Нет
При вычислениях CRC использовались нулевые сэмплы : Да
Интерфейс                                         : Встроенный Win32-интерфейс для Win NT/2000
Выходной формат          : Пользовательский кодировщик
Выбранный битрейт        : 768 kBit/s
Качество                 : Высокий
Добавление ID3-тэга      : Нет
Утилита сжатия           : C:\Program Files\Exact Audio Copy\FLAC\FLAC.EXE
Дополнительные параметры : -8 -V %s
TOC извлечённого CD
     Трек |   Старт  | Длительность | Начальный сектор | Конечный сектор
    ---------------------------------------------------------------------
       1  |  0:00.00 |    5:34.70   |           0      |      25119
       2  |  5:34.70 |    3:57.62   |       25120      |      42956
       3  |  9:32.57 |    3:58.55   |       42957      |      60861
       4  | 13:31.37 |    5:58.50   |       60862      |      87761
       5  | 19:30.12 |    5:51.03   |       87762      |     114089
       6  | 25:21.15 |    7:56.47   |      114090      |     149836
       7  | 33:17.62 |    5:18.08   |      149837      |     173694
       8  | 38:35.70 |    4:47.00   |      173695      |     195219
       9  | 43:22.70 |    3:20.42   |      195220      |     210261
      10  | 46:43.37 |    4:18.63   |      210262      |     229674
      11  | 51:02.25 |    4:53.00   |      229675      |     251649
      12  | 55:55.25 |    3:39.22   |      251650      |     268096
      13  | 59:34.47 |    3:49.48   |      268097      |     285319
      14  | 63:24.20 |    3:58.35   |      285320      |     303204
Характеристики диапазона извлечения и сообщения об ошибках
Выбранный диапазон
     Имя файла G:\FLACи\Henry Johnson with Nancy Wilson-Organic\Henry Johnson - Organic.wav
     Пиковый уровень 98.8 %
     Качество диапазона 100.0 %
     CRC теста 320013FD
     CRC копии 320013FD
     Копирование... OK
Ошибок не произошло
AccurateRip: сводка
Трек  1  нет в базе данных
Трек  2  нет в базе данных
Трек  3  нет в базе данных
Трек  4  нет в базе данных
Трек  5  нет в базе данных
Трек  6  нет в базе данных
Трек  7  нет в базе данных
Трек  8  нет в базе данных
Трек  9  нет в базе данных
Трек 10  нет в базе данных
Трек 11  нет в базе данных
Трек 12  нет в базе данных
Трек 13  нет в базе данных
Трек 14  нет в базе данных
Ни одного трека нет в базе AccurateRip
Конец отчёта
 
 
скрытый текст
 
06:21
632
Нет комментариев. Ваш будет первым!