Поиск

(Jazz) Baden Powell - Solitude On Guitar - 1973, FLAC (tracks+.cue), lossless

(Jazz) Baden Powell - Solitude On Guitar - 1973, FLAC (tracks+.cue), lossless
Треклист:
Baden Powell - Solitude On Guitar (1973)
Жанр: Jazz
Год выпуска диска: 1973
Аудио кодек: FLAC
Тип рипа: tracks+.cue
Битрейт аудио: lossless
Трэклист:
1. Introducao Ao Poema Dos Olhos Amada
2. Chara
3. Se Todos Fossem Iguais A Voce
4. Marcia Eu Te Amo
5. Na Gafieira Do Vidigal
6. Kommt ein Vogel geflogen
7. Fim Da Linha
8. The Shadow Of Your Smile
9. Brasiliana
10. Bassamba
11. Por Causa De Voce
12. Solitario
Доп. информация:
Baden Powell: acoustic guitar
Eberhard Weber: bass
Joaquim Paes Henriques: drums
Recorded 10 and 11 December 1971
Released 31 August 1973
EAC log:
 
скрытый текст
EAC extraction logfile from 19. October 2006, 11:47 for CD
Baden Powell / Solitude On Guitar
Used drive : SONY CD-RW CRX230E Adapter: 1 ID: 0
Read mode : Secure with NO C2, accurate stream, disable cache
Read offset correction : 6
Overread into Lead-In and Lead-Out : No
Used output format : C:\Arquivos de programas\FLAC\flac.exe (User Defined Encoder)
320 kBit/s
Additional command line options : -V -6 -T "artist=%a" -T "title=%t" -T "album=%g" -T "tracknumber=%n" %s
Other options :
Fill up missing offset samples with silence : Yes
Delete leading and trailing silent blocks : No
Installed external ASPI interface
Track 1
Filename C:\01 - Introducao ao Poema dos Olhos da Amada.wav
Pre-gap length 0:00:02.00
Peak level 94.9 %
Track quality 100.0 %
Test CRC 76FA02B0
Copy CRC 76FA02B0
Copy OK
Track 2
Filename C:\02 - Chara.wav
Peak level 98.1 %
Track quality 100.0 %
Test CRC E30201BD
Copy CRC E30201BD
Copy OK
Track 3
Filename C:\03 - Se Todos Fossem Iguais a Voce.wav
Peak level 60.3 %
Track quality 100.0 %
Test CRC 1D8A9F2B
Copy CRC 1D8A9F2B
Copy OK
Track 4
Filename C:\04 - Marcia Eu Te Amo.wav
Peak level 95.9 %
Track quality 99.9 %
Test CRC 5DE141E3
Copy CRC 5DE141E3
Copy OK
Track 5
Filename C:\05 - Na Gafieira do Vidigal.wav
Peak level 96.0 %
Track quality 100.0 %
Test CRC 96975F17
Copy CRC 96975F17
Copy OK
Track 6
Filename C:\06 - Kommt Ein Vogel Geflogen.wav
Peak level 92.1 %
Track quality 99.8 %
Test CRC 9E56ED96
Copy CRC 9E56ED96
Copy OK
Track 7
Filename C:\07 - Fim da Linha.wav
Peak level 99.5 %
Track quality 100.0 %
Test CRC 046CEBA5
Copy CRC 046CEBA5
Copy OK
Track 8
Filename C:\08 - The Shadow of Your Smile.wav
Peak level 87.0 %
Track quality 100.0 %
Test CRC C98D55A7
Copy CRC C98D55A7
Copy OK
Track 9
Filename C:\09 - Brasiliana.wav
Peak level 88.2 %
Track quality 100.0 %
Test CRC 76DFF842
Copy CRC 76DFF842
Copy OK
Track 10
Filename C:\10 - Bassamba.wav
Peak level 95.0 %
Track quality 100.0 %
Test CRC BA4C81B6
Copy CRC BA4C81B6
Copy OK
Track 11
Filename C:\11 - Por Causa de Voce.wav
Peak level 91.1 %
Track quality 100.0 %
Test CRC F564BBF5
Copy CRC F564BBF5
Copy OK
Track 12
Filename C:\12 - Solitario.wav
Peak level 82.4 %
Track quality 100.0 %
Test CRC 7325DDC7
Copy CRC 7325DDC7
Copy OK
No errors occured
End of status report
02:46
449
Нет комментариев. Ваш будет первым!