Поиск

( jazz, avant-garde, world fusion) Vijay Iyer - Panoptic Modes (2000) & Reimagining (2005), FLAC (tracks+.cue), lossless

Треклист:


Vijay Iyer
Panoptic Modes (2000) & Reimagining (2005)
Жанр: jazz, avant-garde, world fusion
Формат: FLAC (tracks+.cue)
Битрейт аудио: lossless
Продолжительность:
Источник: ed2k

Panoptic Modes

01. Invocation (06:07)
02. Configurations (06:41)
03. One Thousand and One (08:30)
04. History is Alive (04:41)
05. Father Spirit (06:19)
06. Atlantean Tropes (06:54)
07. Numbers (for Mumia) (01:43)
08. Trident: 2001 (07:16)
09. Circular Argument (04:47)
10. Invariants (08:20)
11. Mountains (04:41)

 
logfile
X Lossless Decoder version 20090318 (105.0)
XLD extraction logfile from 2009-07-24 13:02:15 +0200
Vijay Iyer / Panoptic Modes
Used drive : HL-DT-ST DVDRW GSA-S10N (revision BP10)
Use cdparanoia mode : YES (CDParanoia III 10.2 engine)
Disable audio cache : OK for the drive with cache less than 2750KB
Make use of C2 pointers : NO
Read offset correction : 667
Max retry count : 0
TOC of the extracted CD
Track | Start | Length | Start sector | End sector
---------------------------------------------------------
1 | 00:00:00 | 06:07:65 | 0 | 27589
2 | 06:07:65 | 06:41:62 | 27590 | 57726
3 | 12:49:52 | 08:30:05 | 57727 | 95981
4 | 21:19:57 | 04:41:43 | 95982 | 117099
5 | 26:01:25 | 06:19:22 | 117100 | 145546
6 | 32:20:47 | 06:54:13 | 145547 | 176609
7 | 39:14:60 | 01:43:27 | 176610 | 184361
8 | 40:58:12 | 07:16:43 | 184362 | 217104
9 | 48:14:55 | 04:47:27 | 217105 | 238656
10 | 53:02:07 | 08:19:73 | 238657 | 276154
11 | 61:22:05 | 04:41:22 | 276155 | 297251
Track 01
Filename : /Users/Documents/alt.binaries.sounds.lossless.jazz/postés/vijai yver/01 - Invocation.flac
CRC32 hash : 034E83A2
CRC32 hash (skip zero) : FCE23A27
AccurateRip signature : 11AF5813
->Track not present in AccurateRip database.
Statistics
Read error : 0
Skipped (treated as error) : 0
Edge jitter error (maybe fixed) : 0
Atom jitter error (maybe fixed) : 0
Drift error (maybe fixed) : 0
Dropped bytes error (maybe fixed) : 0
Duplicated bytes error (maybe fixed) : 0
Track 02
Filename : /Users/Documents/alt.binaries.sounds.lossless.jazz/postés/vijai yver/02 - Configurations.flac
CRC32 hash : 52A9E523
CRC32 hash (skip zero) : C96020FD
AccurateRip signature : 864FC015
->Track not present in AccurateRip database.
Statistics
Read error : 0
Skipped (treated as error) : 0
Edge jitter error (maybe fixed) : 0
Atom jitter error (maybe fixed) : 0
Drift error (maybe fixed) : 0
Dropped bytes error (maybe fixed) : 0
Duplicated bytes error (maybe fixed) : 0
Track 03
Filename : /Users/Documents/alt.binaries.sounds.lossless.jazz/postés/vijai yver/03 - One Thousand and One.flac
CRC32 hash : 01B304CF
CRC32 hash (skip zero) : 5B130CF9
AccurateRip signature : 7E8D3837
->Track not present in AccurateRip database.
Statistics
Read error : 0
Skipped (treated as error) : 0
Edge jitter error (maybe fixed) : 0
Atom jitter error (maybe fixed) : 0
Drift error (maybe fixed) : 0
Dropped bytes error (maybe fixed) : 0
Duplicated bytes error (maybe fixed) : 0
Track 04
Filename : /Users/Documents/alt.binaries.sounds.lossless.jazz/postés/vijai yver/04 - History is Alive.flac
CRC32 hash : 717671E7
CRC32 hash (skip zero) : 17091377
AccurateRip signature : 362EC97F
->Track not present in AccurateRip database.
Statistics
Read error : 0
Skipped (treated as error) : 0
Edge jitter error (maybe fixed) : 0
Atom jitter error (maybe fixed) : 0
Drift error (maybe fixed) : 0
Dropped bytes error (maybe fixed) : 0
Duplicated bytes error (maybe fixed) : 0
Track 05
Filename : /Users/Documents/alt.binaries.sounds.lossless.jazz/postés/vijai yver/05 - Father Spirit.flac
CRC32 hash : 6E07713E
CRC32 hash (skip zero) : DAEBE158
AccurateRip signature : 16DAC0D6
->Track not present in AccurateRip database.
Statistics
Read error : 0
Skipped (treated as error) : 0
Edge jitter error (maybe fixed) : 0
Atom jitter error (maybe fixed) : 0
Drift error (maybe fixed) : 0
Dropped bytes error (maybe fixed) : 0
Duplicated bytes error (maybe fixed) : 0
Track 06
Filename : /Users/Documents/alt.binaries.sounds.lossless.jazz/postés/vijai yver/06 - Atlantean Tropes.flac
CRC32 hash : 5A0FB799
CRC32 hash (skip zero) : E8C569A6
AccurateRip signature : CCA57E81
->Track not present in AccurateRip database.
Statistics
Read error : 0
Skipped (treated as error) : 0
Edge jitter error (maybe fixed) : 0
Atom jitter error (maybe fixed) : 0
Drift error (maybe fixed) : 0
Dropped bytes error (maybe fixed) : 0
Duplicated bytes error (maybe fixed) : 0
Track 07
Filename : /Users/Documents/alt.binaries.sounds.lossless.jazz/postés/vijai yver/07 - Numbers (for Mumia).flac
CRC32 hash : 17DE79EA
CRC32 hash (skip zero) : 2465A9C0
AccurateRip signature : 81A3AA2E
->Track not present in AccurateRip database.
Statistics
Read error : 0
Skipped (treated as error) : 0
Edge jitter error (maybe fixed) : 0
Atom jitter error (maybe fixed) : 0
Drift error (maybe fixed) : 0
Dropped bytes error (maybe fixed) : 0
Duplicated bytes error (maybe fixed) : 0
Track 08
Filename : /Users/Documents/alt.binaries.sounds.lossless.jazz/postés/vijai yver/08 - Trident: 2001.flac
CRC32 hash : 3FBF20FD
CRC32 hash (skip zero) : 9B804471
AccurateRip signature : 85A895B6
->Track not present in AccurateRip database.
Statistics
Read error : 0
Skipped (treated as error) : 0
Edge jitter error (maybe fixed) : 0
Atom jitter error (maybe fixed) : 0
Drift error (maybe fixed) : 0
Dropped bytes error (maybe fixed) : 0
Duplicated bytes error (maybe fixed) : 0
Track 09
Filename : /Users/Documents/alt.binaries.sounds.lossless.jazz/postés/vijai yver/09 - Circular Argument.flac
CRC32 hash : 18FABB0E
CRC32 hash (skip zero) : A74AF205
AccurateRip signature : B87A1B66
->Track not present in AccurateRip database.
Statistics
Read error : 0
Skipped (treated as error) : 0
Edge jitter error (maybe fixed) : 0
Atom jitter error (maybe fixed) : 545
Drift error (maybe fixed) : 0
Dropped bytes error (maybe fixed) : 0
Duplicated bytes error (maybe fixed) : 0
Track 10
Filename : /Users/Documents/alt.binaries.sounds.lossless.jazz/postés/vijai yver/10 - Invariants.flac
CRC32 hash : 0FDF7910
CRC32 hash (skip zero) : 2EA5BFB3
AccurateRip signature : B2C7BF76
->Track not present in AccurateRip database.
Statistics
Read error : 0
Skipped (treated as error) : 0
Edge jitter error (maybe fixed) : 0
Atom jitter error (maybe fixed) : 0
Drift error (maybe fixed) : 0
Dropped bytes error (maybe fixed) : 0
Duplicated bytes error (maybe fixed) : 0
Track 11
Filename : /Users/Documents/alt.binaries.sounds.lossless.jazz/postés/vijai yver/11 - Mountains.flac
CRC32 hash : 8CABEA9E
CRC32 hash (skip zero) : 994CB516
AccurateRip signature : E0741215
->Track not present in AccurateRip database.
Statistics
Read error : 0
Skipped (treated as error) : 0
Edge jitter error (maybe fixed) : 0
Atom jitter error (maybe fixed) : 18
Drift error (maybe fixed) : 0
Dropped bytes error (maybe fixed) : 0
Duplicated bytes error (maybe fixed) : 0
No errors occurred
End of status report


Reimagining

1. Revolutions
2. Inertia
3. Song for Midwood
4. Infogee's Cakewalk
5. The Big Almost
6. Cardio
7. Experience
8. Composites
9. Phalanx
10. Imagine (John Lennon)

 
logfile
Exact Audio Copy V0.99 prebeta 4 from 23. January 2008
EAC extraction logfile from 5. February 2009, 6:27
Iyer, Vijay / Reimagining
Used drive : PLDS DVD+-RW DH-16A6S Adapter: 0 ID: 1
Read mode : Secure
Utilize accurate stream : Yes
Defeat audio cache : Yes
Make use of C2 pointers : No
Read offset correction : 6
Overread into Lead-In and Lead-Out : No
Fill up missing offset samples with silence : Yes
Delete leading and trailing silent blocks : No
Null samples used in CRC calculations : Yes
Used interface : Native Win32 interface for Win NT & 2000
Gap handling : Appended to previous track
Used output format : User Defined Encoder
Selected bitrate : 320 kBit/s
Quality : High
Add ID3 tag : No
Command line compressor : C:\Program Files (x86)\Exact Audio Copy\Flac\flac.exe
Additional command line options : -V -8 -T "artist=%a" -T "title=%t" -T "album=%g" -T "date=%y" -T "tracknumber=%n" -T "genre=%m" %s
TOC of the extracted CD
Track | Start | Length | Start sector | End sector
---------------------------------------------------------
1 | 0:00.00 | 6:32.41 | 0 | 29440
2 | 6:32.41 | 3:19.67 | 29441 | 44432
3 | 9:52.33 | 7:26.58 | 44433 | 77940
4 | 17:19.16 | 5:35.62 | 77941 | 103127
5 | 22:55.03 | 6:42.24 | 103128 | 133301
6 | 29:37.27 | 5:35.58 | 133302 | 158484
7 | 35:13.10 | 3:44.26 | 158485 | 175310
8 | 38:57.36 | 5:30.23 | 175311 | 200083
9 | 44:27.59 | 7:28.43 | 200084 | 233726
10 | 51:56.27 | 3:44.05 | 233727 | 250531
Track 1
Filename C:\EACRips\Iyer, Vijay - 2005 - Reimagining\01 - Revolutions.wav
Pre-gap length 0:00:02.00
Peak level 97.5 %
Track quality 100.0 %
Test CRC 5F5D779F
Copy CRC 5F5D779F
Accurately ripped (confidence 4) [53CB4B76]
Copy OK
Track 2
Filename C:\EACRips\Iyer, Vijay - 2005 - Reimagining\02 - Inertia.wav
Peak level 98.8 %
Track quality 99.9 %
Test CRC 8C876B65
Copy CRC 8C876B65
Accurately ripped (confidence 4) [568AF51F]
Copy OK
Track 3
Filename C:\EACRips\Iyer, Vijay - 2005 - Reimagining\03 - Song for Midwood.wav
Peak level 97.1 %
Track quality 100.0 %
Test CRC 49AA2C80
Copy CRC 49AA2C80
Accurately ripped (confidence 4) [83E81186]
Copy OK
Track 4
Filename C:\EACRips\Iyer, Vijay - 2005 - Reimagining\04 - Infogee's Cakewalk.wav
Peak level 96.8 %
Track quality 100.0 %
Test CRC 8F2E4C5A
Copy CRC 8F2E4C5A
Accurately ripped (confidence 4) [E2A94BB2]
Copy OK
Track 5
Filename C:\EACRips\Iyer, Vijay - 2005 - Reimagining\05 - The Big Almost.wav
Peak level 83.1 %
Track quality 100.0 %
Test CRC 81ACDA80
Copy CRC 81ACDA80
Accurately ripped (confidence 4) [329E6D00]
Copy OK
Track 6
Filename C:\EACRips\Iyer, Vijay - 2005 - Reimagining\06 - Cardio.wav
Pre-gap length 0:00:00.04
Peak level 99.9 %
Track quality 100.0 %
Test CRC 6C3558F4
Copy CRC 6C3558F4
Accurately ripped (confidence 4) [5ACF6A9A]
Copy OK
Track 7
Filename C:\EACRips\Iyer, Vijay - 2005 - Reimagining\07 - Experience.wav
Peak level 89.7 %
Track quality 100.0 %
Test CRC D3DCC0C5
Copy CRC D3DCC0C5
Accurately ripped (confidence 4) [C5FD5F17]
Copy OK
Track 8
Filename C:\EACRips\Iyer, Vijay - 2005 - Reimagining\08 - Composites.wav
Peak level 98.6 %
Track quality 100.0 %
Test CRC 2C516C98
Copy CRC 2C516C98
Accurately ripped (confidence 4) [4892A87E]
Copy OK
Track 9
Filename C:\EACRips\Iyer, Vijay - 2005 - Reimagining\09 - Phalanx.wav
Pre-gap length 0:00:00.42
Peak level 97.7 %
Track quality 100.0 %
Test CRC A6A36191
Copy CRC A6A36191
Accurately ripped (confidence 4) [CC31C1F4]
Copy OK
Track 10
Filename C:\EACRips\Iyer, Vijay - 2005 - Reimagining\10 - Imagine.wav
Peak level 86.7 %
Track quality 100.0 %
Test CRC BF59D000
Copy CRC BF59D000
Accurately ripped (confidence 4) [B23AE6D4]
Copy OK
All tracks accurately ripped
No errors occurred
End of status report


другие релизы
По всем вопросам пишите личное сообщение пользователю M0p94ok.
07:51
166
Нет комментариев. Ваш будет первым!