Вы используете незарегистрированную версию компонента "Вкладки"!

Поиск

(Jazz / Avant-Garde) [Tzadik] Ned Rothenberg - Solo Works - The Lumina Recordings (2CD) - 2006, APE (image+.cue), lossless

Треклист:
Ned Rothenberg - Solo Works - The Lumina Recordings
Жанр: Jazz / Free Improvisation
Год выпуска диска: 2006
Производитель диска: USA Tzadik Cat. # 7615-2
Аудио кодек: APE
Тип рипа: image+.cue
Битрейт аудио: lossless
Трэклист:
Disc 1 (70:45):
1. Trials of the Argo
2. Continuo After the Inuit
3. Portal
4. Polysemy
Disc 2 (73:48):
1. Caeneus
2. Strata
3. Trespass
4. Caenis
5. Slapstick
6. Filigree
7. Kakeai
8. Taps
9. Wrestling with Water
10. Funhouse #1
11. Funhouse #2
Personnel:
Gerry Hemingway: Steel Drum, Trap Set
Ned Rothenberg: Alto Saxophone, Bass Clarinet, Processed Bass Clarinet, Soprano Double Ocarina, Woodwinds, Homemade Instruments
David Weinstein: Live Digital Signal Processing
John Zorn: Alto Saxophone
 
Log EAC CD1
Exact Audio Copy V0.99 prebeta 5 from 4. May 2009
EAC extraction logfile from 18. October 2009, 18:53
Ned Rothenberg / The Lumina Recordings -- Disc 1
Used drive : TOSHIBA DVDW/HD SD-L802B Adapter: 1 ID: 0
Read mode : Secure
Utilize accurate stream : Yes
Defeat audio cache : Yes
Make use of C2 pointers : No
Read offset correction : 696
Overread into Lead-In and Lead-Out : No
Fill up missing offset samples with silence : Yes
Delete leading and trailing silent blocks : No
Null samples used in CRC calculations : Yes
Used interface : Native Win32 interface for Win NT & 2000
Used output format : Monkey's Audio Lossless Encoder v3.99 DLL
Sample format : Normal Lossless Compression
TOC of the extracted CD
Track | Start | Length | Start sector | End sector
---------------------------------------------------------
1 | 0:00.00 | 22:04.00 | 0 | 99299
2 | 22:04.00 | 18:44.01 | 99300 | 183600
3 | 40:48.01 | 16:22.16 | 183601 | 257266
4 | 57:10.17 | 13:43.27 | 257267 | 319018
Range status and errors
Selected range
Filename C:\Users\Viktorija\Documents\Ned Rothenberg - The Lumina Recordings -- Disc 1.ape
Peak level 94.8 %
Range quality 100.0 %
Copy CRC 8F05D536
Copy OK
No errors occurred
AccurateRip summary
Track 1 not present in database
Track 2 not present in database
Track 3 not present in database
Track 4 not present in database
None of the tracks are present in the AccurateRip database
End of status report
 
Log EAC CD2
Exact Audio Copy V0.99 prebeta 5 from 4. May 2009
EAC extraction logfile from 18. October 2009, 16:12
Ned Rothenberg / The Lumina Recordings -- Disc 2
Used drive : TOSHIBA DVDW/HD SD-L802B Adapter: 1 ID: 0
Read mode : Secure
Utilize accurate stream : Yes
Defeat audio cache : Yes
Make use of C2 pointers : No
Read offset correction : 696
Overread into Lead-In and Lead-Out : No
Fill up missing offset samples with silence : Yes
Delete leading and trailing silent blocks : No
Null samples used in CRC calculations : Yes
Used interface : Native Win32 interface for Win NT & 2000
Used output format : Monkey's Audio Lossless Encoder v3.99 DLL
Sample format : Normal Lossless Compression
TOC of the extracted CD
Track | Start | Length | Start sector | End sector
---------------------------------------------------------
1 | 0:00.00 | 8:42.19 | 0 | 39168
2 | 8:42.19 | 5:54.11 | 39169 | 65729
3 | 14:36.30 | 4:28.30 | 65730 | 85859
4 | 19:04.60 | 7:10.02 | 85860 | 118111
5 | 26:14.62 | 3:17.47 | 118112 | 132933
6 | 29:32.34 | 4:37.36 | 132934 | 153744
7 | 34:09.70 | 11:25.07 | 153745 | 205126
8 | 45:35.02 | 3:29.43 | 205127 | 220844
9 | 49:04.45 | 5:41.00 | 220845 | 246419
10 | 54:45.45 | 14:06.23 | 246420 | 309892
11 | 68:51.68 | 5:19.07 | 309893 | 333824
Range status and errors
Selected range
Filename C:\Users\Viktorija\Documents\Ned Rothenberg - The Lumina Recordings -- Disc 2.ape
Peak level 100.0 %
Range quality 99.9 %
Copy CRC 4F1FF9DE
Copy OK
No errors occurred
AccurateRip summary
Track 1 not present in database
Track 2 not present in database
Track 3 not present in database
Track 4 not present in database
Track 5 not present in database
Track 6 not present in database
Track 7 not present in database
Track 8 not present in database
Track 9 not present in database
Track 10 not present in database
Track 11 not present in database
None of the tracks are present in the AccurateRip database
End of status report
По всем вопросам пишите личное сообщение пользователю M0p94ok.
15:28
159
Нет комментариев. Ваш будет первым!