Поиск

(jazz, avant-garde) Sun Ra with Don Cherry and Tommy Turrentine - Blue Delight 1989, FLAC (tracks+.cue), lossless

Треклист:


Sun Ra with Don Cherry and Tommy Turrentine
Blue Delight
Жанр: jazz
Год выпуска: 1989
Формат: FLAC (tracks+.cue)
Битрейт аудио: lossless
Продолжительность
Источник: ed2k

tracks

1. Blue Delight - 11:12
2. Out of Nowhere - 5:29
3. Sunrise - 11:50
4. They Dwell on Other Planes - 14:44
5. Gone with the Wind - 5:53
6. Your Guest Is As Good As Mine - 5:55
7. Nashira - 4:11
8. Days of Wine and Roses - 6:58


 
.log
X Lossless Decoder version 20080916c (91.3)
XLD extraction logfile from 2008-09-17 18:59:19 -0700
Sun Ra / Blue Delight
Used drive : MATSHITA DVD-R UJ-835E (revision GAN7)
Use cdparanoia mode : YES (CDParanoia III 10.2 engine)
Disable audio cache : YES (1/14)
Read offset correction : 102
Max retry count : 100
TOC of the extracted CD
Track | Start | Length | Start sector | End sector
---------------------------------------------------------
1 | 00:00:00 | 11:12:45 | 0 | 50444
2 | 11:12:45 | 05:29:08 | 50445 | 75127
3 | 16:41:53 | 11:50:45 | 75128 | 128422
4 | 28:32:23 | 14:44:55 | 128423 | 194777
5 | 43:17:03 | 05:53:05 | 194778 | 221257
6 | 49:10:08 | 05:55:45 | 221258 | 247927
7 | 55:05:53 | 04:11:15 | 247928 | 266767
8 | 59:16:68 | 06:58:17 | 266768 | 298134
Track 01
Filename : /XLD Rips/01 Blue Delight.flac
CRC32 hash (test run) : 49867D04
CRC32 hash : 49867D04
CRC32 hash (skip zero) : DA696478
AccurateRip signature : 5A6814F6
->Track not present in AccurateRip database.
Statistics
Read error : 0
Skipped (treated as error) : 0
Edge jitter error (maybe fixed) : 0
Atom jitter error (maybe fixed) : 0
Drift error (maybe fixed) : 0
Dropped bytes error (maybe fixed) : 0
Duplicated bytes error (maybe fixed) : 0
Inconsistency in error sectors : 0
Track 02
Filename : /XLD Rips/02 Out Of Nowhere.flac
CRC32 hash (test run) : 6F4EB03D
CRC32 hash : 6F4EB03D
CRC32 hash (skip zero) : EA81201D
AccurateRip signature : 97BC06F4
->Track not present in AccurateRip database.
Statistics
Read error : 0
Skipped (treated as error) : 0
Edge jitter error (maybe fixed) : 0
Atom jitter error (maybe fixed) : 0
Drift error (maybe fixed) : 0
Dropped bytes error (maybe fixed) : 0
Duplicated bytes error (maybe fixed) : 0
Inconsistency in error sectors : 0
Track 03
Filename : /XLD Rips/03 Sunrise.flac
CRC32 hash (test run) : E9E0AF55
CRC32 hash : E9E0AF55
CRC32 hash (skip zero) : D43B3215
AccurateRip signature : 2208105C
->Track not present in AccurateRip database.
Statistics
Read error : 0
Skipped (treated as error) : 0
Edge jitter error (maybe fixed) : 0
Atom jitter error (maybe fixed) : 0
Drift error (maybe fixed) : 0
Dropped bytes error (maybe fixed) : 0
Duplicated bytes error (maybe fixed) : 0
Inconsistency in error sectors : 0
Track 04
Filename : /XLD Rips/04 They Dwell On Other Planes.flac
CRC32 hash (test run) : 638DD84C
CRC32 hash : 638DD84C
CRC32 hash (skip zero) : B4E56D2E
AccurateRip signature : 3B84D635
->Track not present in AccurateRip database.
Statistics
Read error : 0
Skipped (treated as error) : 0
Edge jitter error (maybe fixed) : 0
Atom jitter error (maybe fixed) : 0
Drift error (maybe fixed) : 0
Dropped bytes error (maybe fixed) : 0
Duplicated bytes error (maybe fixed) : 0
Inconsistency in error sectors : 0
Track 05
Filename : /XLD Rips/05 Gone With The Wind.flac
CRC32 hash (test run) : 2A731B20
CRC32 hash : 2A731B20
CRC32 hash (skip zero) : 0754C473
AccurateRip signature : 798FD708
->Track not present in AccurateRip database.
Statistics
Read error : 0
Skipped (treated as error) : 0
Edge jitter error (maybe fixed) : 0
Atom jitter error (maybe fixed) : 0
Drift error (maybe fixed) : 0
Dropped bytes error (maybe fixed) : 0
Duplicated bytes error (maybe fixed) : 0
Inconsistency in error sectors : 0
Track 06
Filename : /XLD Rips/06 Your Guest Is As Good As Mine.flac
CRC32 hash (test run) : 58F1CACA
CRC32 hash : 58F1CACA
CRC32 hash (skip zero) : 136C689C
AccurateRip signature : 54EB0651
->Track not present in AccurateRip database.
Statistics
Read error : 0
Skipped (treated as error) : 0
Edge jitter error (maybe fixed) : 0
Atom jitter error (maybe fixed) : 0
Drift error (maybe fixed) : 0
Dropped bytes error (maybe fixed) : 0
Duplicated bytes error (maybe fixed) : 0
Inconsistency in error sectors : 0
Track 07
Filename : /XLD Rips/07 Nashira.flac
CRC32 hash (test run) : C8DF1B33
CRC32 hash : C8DF1B33
CRC32 hash (skip zero) : 609FE79C
AccurateRip signature : 2A73F536
->Track not present in AccurateRip database.
Statistics
Read error : 0
Skipped (treated as error) : 0
Edge jitter error (maybe fixed) : 0
Atom jitter error (maybe fixed) : 0
Drift error (maybe fixed) : 0
Dropped bytes error (maybe fixed) : 0
Duplicated bytes error (maybe fixed) : 0
Inconsistency in error sectors : 0
Track 08
Filename : /XLD Rips/08 Days Of Wine And Roses.flac
CRC32 hash (test run) : E1F3312C
CRC32 hash : E1F3312C
CRC32 hash (skip zero) : 9A1765F8
AccurateRip signature : 934D875C
->Track not present in AccurateRip database.
Statistics
Read error : 0
Skipped (treated as error) : 0
Edge jitter error (maybe fixed) : 0
Atom jitter error (maybe fixed) : 0
Drift error (maybe fixed) : 0
Dropped bytes error (maybe fixed) : 0
Duplicated bytes error (maybe fixed) : 0
Inconsistency in error sectors : 0
No errors occurred
End of status report
 
.cue
TITLE "Blue Delight"
PERFORMER "Sun Ra"
REM GENRE "Jazz"
REM DATE 1989
FILE "01 Blue Delight.wav" WAVE
TRACK 01 AUDIO
TITLE "Blue Delight"
PERFORMER "Sun Ra"
REM GENRE "Jazz"
REM DATE 1989
INDEX 01 00:00:00
TRACK 02 AUDIO
TITLE "Out Of Nowhere"
PERFORMER "Sun Ra"
REM GENRE "Jazz"
REM DATE 1989
INDEX 00 11:10:43
FILE "02 Out Of Nowhere.wav" WAVE
INDEX 01 00:00:00
TRACK 03 AUDIO
TITLE "Sunrise"
PERFORMER "Sun Ra"
REM GENRE "Jazz"
REM DATE 1989
INDEX 00 05:26:63
FILE "03 Sunrise.wav" WAVE
INDEX 01 00:00:00
TRACK 04 AUDIO
TITLE "They Dwell On Other Planes"
PERFORMER "Sun Ra"
REM GENRE "Jazz"
REM DATE 1989
INDEX 00 11:48:60
FILE "04 They Dwell On Other Planes.wav" WAVE
INDEX 01 00:00:00
TRACK 05 AUDIO
TITLE "Gone With The Wind"
PERFORMER "Sun Ra"
REM GENRE "Jazz"
REM DATE 1989
INDEX 00 14:41:50
FILE "05 Gone With The Wind.wav" WAVE
INDEX 01 00:00:00
TRACK 06 AUDIO
TITLE "Your Guest Is As Good As Mine"
PERFORMER "Sun Ra"
REM GENRE "Jazz"
REM DATE 1989
INDEX 00 05:51:35
FILE "06 Your Guest Is As Good As Mine.wav" WAVE
INDEX 01 00:00:00
TRACK 07 AUDIO
TITLE "Nashira"
PERFORMER "Sun Ra"
REM GENRE "Jazz"
REM DATE 1989
INDEX 00 05:53:07
FILE "07 Nashira.wav" WAVE
INDEX 01 00:00:00
TRACK 08 AUDIO
TITLE "Days Of Wine And Roses"
PERFORMER "Sun Ra"
REM GENRE "Jazz"
REM DATE 1989
INDEX 00 04:09:57
FILE "08 Days Of Wine And Roses.wav" WAVE
INDEX 01 00:00:00

другие релизы
По всем вопросам пишите личное сообщение пользователю M0p94ok.
19:06
256
Нет комментариев. Ваш будет первым!