Вы используете незарегистрированную версию компонента "Вкладки"!

Поиск

(Jazz, Avant-Garde) Sun Ra and his Solar Arkestra - Other Planes of There - 1964 (Reissue 1992), APE (tracks+.cue), lossless

Треклист:
Sun Ra and his Solar Arkestra - Other Planes of There
Жанр: Jazz, Avant-Garde
Год выпуска диска: 1992
Производитель диска: Evidence (US) | Catalog#: ECD 22037
Аудио кодек: APE
Тип рипа: tracks+.cue
Битрейт аудио: lossless
Продолжительность: 48:00
Трэклист:
01. Other Planes of There - (22.01)
02. Sound Spectra / Spec Sket - (7.39)
03. Sketch - (4.46)
04. Pleasure - (3.10)
05. Spiral Galaxy - (10.01)
Performers:
* Sun Ra - Piano
* Walter Miller - Trumpet
* Ali Hassan - Trombone
* Teddy Nance - Trombone
* Bernard Pettaway - Bass Trombone
* Marshall Allen - Alto Sax, Oboe, Percussion
* Danny Davis - Alto Sax, Flute
* John Gilmore - Tenor Sax
* Pat Patrick - Baritone Saxophone
* Robert Cummings - Bass Clarinet
* Ronnie Boykins - Bass
* Roger Blank - Drums
* Lex Humphries - Drums
Recorded at the Choreographer's Workshop, New York (the Arkestra's rehearsal space) in 1964.
Доп. информация:
 
EAC extraction logfile
Exact Audio Copy V0.99 prebeta 5 from 4. May 2009
EAC extraction logfile from 18. October 2009, 13:35
Sun Ra / Other Planes of There
Used drive : ATAPI DVD A DH16A1L Adapter: 2 ID: 1
Read mode : Secure
Utilize accurate stream : Yes
Defeat audio cache : Yes
Make use of C2 pointers : No
Read offset correction : 6
Overread into Lead-In and Lead-Out : No
Fill up missing offset samples with silence : Yes
Delete leading and trailing silent blocks : No
Null samples used in CRC calculations : Yes
Used interface : Native Win32 interface for Win NT & 2000
Gap handling : Appended to previous track
Used output format : User Defined Encoder
Selected bitrate : 1024 kBit/s
Quality : High
Add ID3 tag : No
Command line compressor : C:\Program Files\Exact Audio Copy\wapet\wapet.exe
Additional command line options : %d -t "Artist=%a" -t "Title=%t" -t "Album=%g" -t "Year=%y" -t "Track=%n" -t "Genre=%m" "C:\Program Files\Monkey's Audio\MAC.exe" %s %d -c2000
TOC of the extracted CD
Track | Start | Length | Start sector | End sector
---------------------------------------------------------
1 | 0:00.00 | 22:04.00 | 0 | 99299
2 | 22:04.00 | 7:48.35 | 99300 | 134434
3 | 29:52.35 | 4:51.27 | 134435 | 156286
4 | 34:43.62 | 3:14.20 | 156287 | 170856
5 | 37:58.07 | 10:02.23 | 170857 | 216029
Track 1
Filename D:\Music\Ripped tracks\New Folder\01 - Other planes of there.wav
Pre-gap length 0:00:02.00
Peak level 100.0 %
Track quality 100.0 %
Test CRC B9CE7CE1
Copy CRC B9CE7CE1
Accurately ripped (confidence 5) [BC1765B3]
Copy OK
Track 2
Filename D:\Music\Ripped tracks\New Folder\02 - Sound spectra - spec sket.wav
Pre-gap length 0:00:02.50
Peak level 94.4 %
Track quality 100.0 %
Test CRC 0764497B
Copy CRC 0764497B
Accurately ripped (confidence 5) [45E90BC5]
Copy OK
Track 3
Filename D:\Music\Ripped tracks\New Folder\03 - Sketch.wav
Pre-gap length 0:00:08.70
Peak level 96.3 %
Track quality 100.0 %
Test CRC CD0BBAD6
Copy CRC CD0BBAD6
Accurately ripped (confidence 5) [CF7D4A32]
Copy OK
Track 4
Filename D:\Music\Ripped tracks\New Folder\04 - Pleasure.wav
Pre-gap length 0:00:04.00
Peak level 97.2 %
Track quality 99.9 %
Test CRC D9844F9D
Copy CRC D9844F9D
Accurately ripped (confidence 5) [607AA670]
Copy OK
Track 5
Filename D:\Music\Ripped tracks\New Folder\05 - Spiral galaxy.wav
Pre-gap length 0:00:03.69
Peak level 100.0 %
Track quality 100.0 %
Test CRC D9945837
Copy CRC D9945837
Accurately ripped (confidence 5) [FB38F13E]
Copy OK
All tracks accurately ripped
No errors occurred
End of status report
По всем вопросам пишите личное сообщение пользователю M0p94ok.
15:34
207
Нет комментариев. Ваш будет первым!