Вы используете незарегистрированную версию компонента "Вкладки"!

Поиск

(Jazz, Avant-Garde) Sun Ra and his Myth Science Arkestra - Angels and Demons at Play/The Nubians of Plutonia - 1956-60 (Reissue 1993), APE (tracks+.cue), lossless

Треклист:
Sun Ra and his Myth Science Arkestra - Angels and Demons at Play/The Nubians of Plutonia
Жанр: Jazz, Avant-Garde
Год выпуска диска: 1993
Производитель диска: Evidence (US) | Catalog#: ECD 22066
Аудио кодек: APE
Тип рипа: tracks+.cue
Битрейт аудио: lossless
Продолжительность: 60:02
Трэклист:
Angels and Demons at Play:
01. Tiny Pyramids – 3:38
02. Between Two Worlds – 1:56
03. Music from the World Tomorrow – 2:20
04. Angels and Demons at Play – 2:51
05. Urnack – 3:46
06. Medicine for a Nightmare – 2:16
07. A Call for All Demons – 4:12
08. Demon's Lullaby – 2:35
Performers:

On Urnack, Medicine for a Nightmare, A Call For Demons & Demon's Lullaby, recorded RCA Studios, Chicago, around February 1956:
* Sun Ra - Piano, Electric Piano
* Art Hoyle - Trumpet,
* Julian Priester - Trombone
* John Gilmore - Tenor Sax
* Pat Patrick - Baritone Sax
* Wilburn Green - Electric Bass
* Robert Barry - Drums
* Jim Herndon - Tympani
On Tiny Pyramids and Angels And Demons At Play, RCA Studios Chicago, around June 17 1960:
* Sun Ra - Percussion, Bells, Gong and Piano
* Phil Cohran - Cornet
* Nate Pryor - Trombone and Bells
* John Gilmore - Tenor Sax and Clarinet, percussion
* Marshall Allen - Flute
* Ronnie Boykins - Bass
* Jon Hardy - Drums, Percussion
On Between Two Worlds recorded during rehearsals at the same time:
* Sun Ra - Piano
* possibly Bo Bailey - Trombone
* John Gilmore - Tenor Sax
* Marshall Allen - Alto Sax
* Ronnie Boykins - Bass
* possibly Robert Barry - Drums
On Music From The World Tomorrow, also recorded during rehearsals in Chicago, 1960:
* Sun Ra - 'Cosmic tone organ
* Ronnie Boykins - Bass
* Phil Cohran - Violin-uke
* Jon Hardy - Drums
The Nubians of Plutonia:
09. Plutonian Nights - (4.22)
10 The Lady with the Golden Stockings (Later retitled The Golden Lady after the album's name was changed) - (7.41)
11. Star Time - (4.18)
12. Nubia - (8.14)
13. Africa - (5.06)
14. Watusa - (2.36)
15. Aiethopia - (7.12)
Performers:
* Sun Ra - Piano, Wurlitzer Electric Piano
* Lucious Randolph - Trumpet
* Nate Pryor - Trombone
* James Spaulding - Alto Sax
* Marshall Allen - Alto Sax
* John Gilmore - Tenor Sax, Percussion
* Pat Patrick - Baritone Sax, Percussion
* Charles Davis - Baritone Sax
* Ronnie Boykins - Bass
* Robert Barry - Drums
* Jim Herndon - Percussion
On 'Watusa', William Fielder replaced Lucious Randolph on Trumpet.

Recorded in rehearsal, Chicago, either 1958 or 1959.
Доп. информация:
 
EAC extraction logfile
Exact Audio Copy V0.99 prebeta 5 from 4. May 2009
EAC extraction logfile from 18. October 2009, 20:53
Sun Ra / Angels and Demons at Play + The Nubians of Plutonia
Used drive : ATAPI DVD A DH16A1L Adapter: 2 ID: 1
Read mode : Secure
Utilize accurate stream : Yes
Defeat audio cache : Yes
Make use of C2 pointers : No
Read offset correction : 6
Overread into Lead-In and Lead-Out : No
Fill up missing offset samples with silence : Yes
Delete leading and trailing silent blocks : No
Null samples used in CRC calculations : Yes
Used interface : Native Win32 interface for Win NT & 2000
Gap handling : Appended to previous track
Used output format : User Defined Encoder
Selected bitrate : 1024 kBit/s
Quality : High
Add ID3 tag : No
Command line compressor : C:\Program Files\Exact Audio Copy\wapet\wapet.exe
Additional command line options : %d -t "Artist=%a" -t "Title=%t" -t "Album=%g" -t "Year=%y" -t "Track=%n" -t "Genre=%m" "C:\Program Files\Monkey's Audio\MAC.exe" %s %d -c2000
TOC of the extracted CD
Track | Start | Length | Start sector | End sector
---------------------------------------------------------
1 | 0:00.00 | 3:41.00 | 0 | 16574
2 | 3:41.00 | 1:59.72 | 16575 | 25571
3 | 5:40.72 | 2:23.45 | 25572 | 36341
4 | 8:04.42 | 2:54.30 | 36342 | 49421
5 | 10:58.72 | 3:50.00 | 49422 | 66671
6 | 14:48.72 | 2:20.03 | 66672 | 77174
7 | 17:09.00 | 4:15.72 | 77175 | 96371
8 | 21:24.72 | 2:39.00 | 96372 | 108296
9 | 24:03.72 | 4:23.28 | 108297 | 128049
10 | 28:27.25 | 7:43.30 | 128050 | 162804
11 | 36:10.55 | 4:19.27 | 162805 | 182256
12 | 40:30.07 | 8:15.60 | 182257 | 219441
13 | 48:45.67 | 5:07.23 | 219442 | 242489
14 | 53:53.15 | 2:38.57 | 242490 | 254396
15 | 56:31.72 | 7:11.33 | 254397 | 286754
Track 1
Filename D:\Music\Ripped tracks\New Folder\01 - Tiny Pyramids.wav
Pre-gap length 0:00:02.00
Peak level 94.4 %
Track quality 100.0 %
Test CRC 883034D3
Copy CRC 883034D3
Accurately ripped (confidence 5) [6B18F04B]
Copy OK
Track 2
Filename D:\Music\Ripped tracks\New Folder\02 - Between Two Worlds.wav
Pre-gap length 0:00:02.92
Peak level 97.8 %
Track quality 100.0 %
Test CRC 4BE3D03C
Copy CRC 4BE3D03C
Accurately ripped (confidence 5) [0D8DABA0]
Copy OK
Track 3
Filename D:\Music\Ripped tracks\New Folder\03 - Music From The World Tomorrow.wav
Pre-gap length 0:00:03.57
Peak level 79.0 %
Track quality 100.0 %
Test CRC 746EDEAC
Copy CRC 746EDEAC
Accurately ripped (confidence 5) [E9842EAE]
Copy OK
Track 4
Filename D:\Music\Ripped tracks\New Folder\04 - Angels And Demons At Play.wav
Pre-gap length 0:00:03.54
Peak level 98.9 %
Track quality 100.0 %
Test CRC A1702979
Copy CRC A1702979
Accurately ripped (confidence 5) [BDFEC371]
Copy OK
Track 5
Filename D:\Music\Ripped tracks\New Folder\05 - Urnack.wav
Pre-gap length 0:00:03.30
Peak level 98.8 %
Track quality 100.0 %
Test CRC 9B9EBE03
Copy CRC 9B9EBE03
Accurately ripped (confidence 5) [BA9A4541]
Copy OK
Track 6
Filename D:\Music\Ripped tracks\New Folder\06 - Medicine For A Nightmare.wav
Pre-gap length 0:00:04.10
Peak level 91.7 %
Track quality 100.0 %
Test CRC F3277061
Copy CRC F3277061
Accurately ripped (confidence 5) [BF16B8CD]
Copy OK
Track 7
Filename D:\Music\Ripped tracks\New Folder\07 - A Call For All Demons.wav
Pre-gap length 0:00:03.61
Peak level 99.9 %
Track quality 100.0 %
Test CRC 7489EF3A
Copy CRC 7489EF3A
Accurately ripped (confidence 5) [4DE23F38]
Copy OK
Track 8
Filename D:\Music\Ripped tracks\New Folder\08 - Demon's Lullaby.wav
Pre-gap length 0:00:03.84
Peak level 95.5 %
Track quality 100.0 %
Test CRC 8BC93D35
Copy CRC 8BC93D35
Accurately ripped (confidence 5) [E73E8A43]
Copy OK
Track 9
Filename D:\Music\Ripped tracks\New Folder\09 - Plutonian Nights.wav
Pre-gap length 0:00:04.01
Peak level 98.1 %
Track quality 100.0 %
Test CRC BE99CD6F
Copy CRC BE99CD6F
Accurately ripped (confidence 5) [5D31EF0E]
Copy OK
Track 10
Filename D:\Music\Ripped tracks\New Folder\10 - The Golden Lady.wav
Pre-gap length 0:00:03.12
Peak level 92.0 %
Track quality 100.0 %
Test CRC 8A2AAF4B
Copy CRC 8A2AAF4B
Accurately ripped (confidence 5) [0C2185FE]
Copy OK
Track 11
Filename D:\Music\Ripped tracks\New Folder\11 - Star Time.wav
Pre-gap length 0:00:03.92
Peak level 98.2 %
Track quality 100.0 %
Test CRC 40FBB6AF
Copy CRC 40FBB6AF
Accurately ripped (confidence 5) [33630B17]
Copy OK
Track 12
Filename D:\Music\Ripped tracks\New Folder\12 - Nubia.wav
Pre-gap length 0:00:03.61
Peak level 99.9 %
Track quality 100.0 %
Test CRC 33CC4B8A
Copy CRC 33CC4B8A
Accurately ripped (confidence 5) [BFC55F74]
Copy OK
Track 13
Filename D:\Music\Ripped tracks\New Folder\13 - Africa.wav
Pre-gap length 0:00:02.94
Peak level 69.0 %
Track quality 100.0 %
Test CRC 0BCBB1D2
Copy CRC 0BCBB1D2
Accurately ripped (confidence 5) [5602115D]
Copy OK
Track 14
Filename D:\Music\Ripped tracks\New Folder\14 - Watusa.wav
Pre-gap length 0:00:03.68
Peak level 71.5 %
Track quality 100.0 %
Test CRC 16B96E3F
Copy CRC 16B96E3F
Accurately ripped (confidence 5) [6088D285]
Copy OK
Track 15
Filename D:\Music\Ripped tracks\New Folder\15 - Aiethopia.wav
Pre-gap length 0:00:04.28
Peak level 97.6 %
Track quality 100.0 %
Test CRC 5BDA5263
Copy CRC 5BDA5263
Accurately ripped (confidence 5) [4AE326C6]
Copy OK
All tracks accurately ripped
No errors occurred
End of status report
По всем вопросам пишите личное сообщение пользователю M0p94ok.
15:31
245
Нет комментариев. Ваш будет первым!