Вы используете незарегистрированную версию компонента "Вкладки"!

Поиск

(jazz, avant-garde) Steve Lacy Seven - Cliches 1982, FLAC (tracks+.cue), lossless

Треклист:


Steve Lacy Seven - Cliches
Жанр: jazz, avant-garde
Год выпуска: 1982
Формат: FLAC (tracks+.cue)
Битрейт аудио: lossless
Продолжительность
Источник: ed2k

tracks

1 Stamps 6:53
2 Wickets 11:35
3 The Whammies 5:13
4 The Dumps 17:08
5 Clichés 22:23


 
logfile
X Lossless Decoder version 20090320 (105.1)
XLD extraction logfile from 2009-06-01 22:15:27 -0400
/ Audio CD
Used drive : MATSHITA DVD-R UJ-845E (revision DMP2)
Use cdparanoia mode : YES (CDParanoia III 10.2 engine)
Disable audio cache : OK for the drive with cache less than 2750KB
Make use of C2 pointers : NO
Read offset correction : 102
Max retry count : 100
TOC of the extracted CD
Track | Start | Length | Start sector | End sector
---------------------------------------------------------
1 | 00:00:00 | 06:53:62 | 0 | 31036
2 | 06:53:62 | 11:35:00 | 31037 | 83161
3 | 18:28:62 | 05:13:00 | 83162 | 106636
4 | 23:41:62 | 17:08:00 | 106637 | 183736
5 | 40:49:62 | 22:25:13 | 183737 | 284624
Track 01
Filename : /Users/jacobwunsch/Desktop/Steve Lacy 7 - Clichés - 1982/01 Track 01.flac
CRC32 hash (test run) : 1478B48E
CRC32 hash : 1478B48E
CRC32 hash (skip zero) : EDB74054
AccurateRip signature : FBD8E61C
->Track not present in AccurateRip database.
Statistics
Read error : 0
Skipped (treated as error) : 0
Edge jitter error (maybe fixed) : 1
Atom jitter error (maybe fixed) : 1
Drift error (maybe fixed) : 0
Dropped bytes error (maybe fixed) : 0
Duplicated bytes error (maybe fixed) : 0
Inconsistency in error sectors : 0
Track 02
Filename : /Users/jacobwunsch/Desktop/Steve Lacy 7 - Clichés - 1982/02 Track 02.flac
CRC32 hash (test run) : 291F45AD
CRC32 hash : 291F45AD
CRC32 hash (skip zero) : 48D0D7A9
AccurateRip signature : 2263FAF1
->Track not present in AccurateRip database.
Statistics
Read error : 0
Skipped (treated as error) : 0
Edge jitter error (maybe fixed) : 0
Atom jitter error (maybe fixed) : 0
Drift error (maybe fixed) : 0
Dropped bytes error (maybe fixed) : 0
Duplicated bytes error (maybe fixed) : 0
Inconsistency in error sectors : 0
Track 03
Filename : /Users/jacobwunsch/Desktop/Steve Lacy 7 - Clichés - 1982/03 Track 03.flac
CRC32 hash (test run) : 32E04DBD
CRC32 hash : 32E04DBD
CRC32 hash (skip zero) : C423DE57
AccurateRip signature : FEE12648
->Track not present in AccurateRip database.
Statistics
Read error : 0
Skipped (treated as error) : 0
Edge jitter error (maybe fixed) : 0
Atom jitter error (maybe fixed) : 0
Drift error (maybe fixed) : 0
Dropped bytes error (maybe fixed) : 0
Duplicated bytes error (maybe fixed) : 0
Inconsistency in error sectors : 0
Track 04
Filename : /Users/jacobwunsch/Desktop/Steve Lacy 7 - Clichés - 1982/04 Track 04.flac
CRC32 hash (test run) : C40E4D4B
CRC32 hash : C40E4D4B
CRC32 hash (skip zero) : B9D32AB2
AccurateRip signature : 48AF6635
->Track not present in AccurateRip database.
Statistics
Read error : 0
Skipped (treated as error) : 0
Edge jitter error (maybe fixed) : 1
Atom jitter error (maybe fixed) : 0
Drift error (maybe fixed) : 0
Dropped bytes error (maybe fixed) : 1
Duplicated bytes error (maybe fixed) : 1
Inconsistency in error sectors : 0
Track 05
Filename : /Users/jacobwunsch/Desktop/Steve Lacy 7 - Clichés - 1982/05 Track 05.flac
CRC32 hash (test run) : F1FAE624
CRC32 hash : F1FAE624
CRC32 hash (skip zero) : ADBAF870
AccurateRip signature : 2A2451C3
->Track not present in AccurateRip database.
Statistics
Read error : 0
Skipped (treated as error) : 0
Edge jitter error (maybe fixed) : 0
Atom jitter error (maybe fixed) : 0
Drift error (maybe fixed) : 0
Dropped bytes error (maybe fixed) : 0
Duplicated bytes error (maybe fixed) : 0
Inconsistency in error sectors : 0
No errors occurred
End of status report

AMG review
другие релизы
Any questions -> support@pro-jazz.com. По всем вопросам пишите -> support@pro-jazz.com
17:23
253
Нет комментариев. Ваш будет первым!