Вы используете незарегистрированную версию компонента "Вкладки"!

Поиск

(jazz, avant-garde) Paul Bley with Jay Anderson & Jeff Hirshfield - Notes On Ornette [1998] , FLAC (tracks+.cue) lossless

(jazz, avant-garde) Paul Bley with Jay Anderson & Jeff Hirshfield - Notes On Ornette [1998] , FLAC (tracks+.cue) lossless
Треклист:


Paul Bley with Jay Anderson & Jeff Hirshfield
Notes On Ornette [1998]
Жанр: jazz, avant-garde
Год издания диска: 1998
Издатель (лейбл): Steeplechase
Аудио кодек: FLAC (*.flac)
Тип рипа: tracks+.cue
Битрейт аудио: lossless
Продолжительность: 1`01
Источник (релизер): what.cd
Наличие сканов в содержимом раздачи: да
Треклист:
01. Turnaround
02. Lorraine
03. Crossroads
04. When Will The Blues Leave
05. Compassion
06. Rejoicing
07. AARP
 
Лог создания рипа
Exact Audio Copy V0.99 prebeta 4 from 23. January 2008
EAC extraction logfile from 27. March 2009, 17:13
Paul Bley / Notes On Ornette
Used drive : LITE-ON LTR-16102B Adapter: 3 ID: 0
Read mode : Burst
Read offset correction : 0
Overread into Lead-In and Lead-Out : No
Fill up missing offset samples with silence : No
Delete leading and trailing silent blocks : No
Null samples used in CRC calculations : Yes
Used interface : Native Win32 interface for Win NT & 2000
Gap handling : Not detected, thus appended to previous track
Used output format : User Defined Encoder
Selected bitrate : 256 kBit/s
Quality : High
Add ID3 tag : No
Command line compressor : C:\Programmi\Exact Audio Copy\Flac\flac.exe
Additional command line options : -6 -V -T "ARTIST=%a" -T "TITLE=%t" -T "ALBUM=%g" -T "DATE=%y" -T "TRACKNUMBER=%n" -T "GENRE=%m" -T "COMMENT=%e" %s
TOC of the extracted CD
Track | Start | Length | Start sector | End sector
---------------------------------------------------------
1 | 0:00.00 | 12:09.18 | 0 | 54692
2 | 12:09.18 | 10:06.31 | 54693 | 100173
3 | 22:15.49 | 5:53.64 | 100174 | 126712
4 | 28:09.38 | 6:46.31 | 126713 | 157193
5 | 34:55.69 | 9:36.58 | 157194 | 200451
6 | 44:32.52 | 10:41.11 | 200452 | 248537
7 | 55:13.63 | 5:53.10 | 248538 | 275022
Track 1
Filename D:\Adunanza\Nuova cartella\01 Turn Around.wav
Timing problem 0:01:29
Timing problem 0:03:27
Timing problem 0:05:13
Peak level 99.8 %
Copy CRC 4103AD1A
Copy finished
Track 2
Filename D:\Adunanza\Nuova cartella\02 Lorraine.wav
Peak level 98.6 %
Copy CRC B8D8BDFB
Copy OK
Track 3
Filename D:\Adunanza\Nuova cartella\03 Crossroads.wav
Peak level 99.9 %
Copy CRC A1093181
Copy OK
Track 4
Filename D:\Adunanza\Nuova cartella\04 When Will The Blues Leave.wav
Peak level 99.9 %
Copy CRC AF96BF0D
Copy OK
Track 5
Filename D:\Adunanza\Nuova cartella\05 Compassion.wav
Peak level 98.7 %
Copy CRC 5A8A75B0
Copy OK
Track 6
Filename D:\Adunanza\Nuova cartella\06 Rejoicing.wav
Peak level 92.5 %
Copy CRC EE322EA5
Copy OK
Track 7
Filename D:\Adunanza\Nuova cartella\07 AARP.wav
Peak level 96.6 %
Copy CRC 706407DF
Copy OK
No errors occurred
End of status report
 
Содержание индексной карты (.CUE)
REM GENRE
REM DATE
REM DISCID 5D0E5207
REM COMMENT "ExactAudioCopy v0.99pb4"
REM COMMENT "Cue Created at http://eachelper.okamihost.com/"
PERFORMER "Paul Bley"
TITLE "Notes On Ornette"
FILE "01 Turn Around.wav" WAVE
TRACK 01 AUDIO
TITLE "Turn Around"
PERFORMER "Paul Bley"
INDEX 01 00:00:00
FILE "02 Lorraine.wav" WAVE
TRACK 02 AUDIO
TITLE "Lorraine"
PERFORMER "Paul Bley"
INDEX 01 00:00:00
FILE "03 Crossroads.wav" WAVE
TRACK 03 AUDIO
TITLE "Crossroads"
PERFORMER "Paul Bley"
INDEX 01 00:00:00
FILE "04 When Will The Blues Leave.wav" WAVE
TRACK 04 AUDIO
TITLE "When Will The Blues Leave"
PERFORMER "Paul Bley"
INDEX 01 00:00:00
FILE "05 Compassion.wav" WAVE
TRACK 05 AUDIO
TITLE "Compassion"
PERFORMER "Paul Bley"
INDEX 01 00:00:00
FILE "06 Rejoicing.wav" WAVE
TRACK 06 AUDIO
TITLE "Rejoicing"
PERFORMER "Paul Bley"
INDEX 01 00:00:00
FILE "07 AARP.wav" WAVE
TRACK 07 AUDIO
TITLE "AARP"
PERFORMER "Paul Bley"
INDEX 01 00:00:00
 
Состав
Paul Bley
Jay Anderson
Jeff Hirshfield
Any questions -> support@pro-jazz.com. По всем вопросам пишите -> support@pro-jazz.com
03:55
253
Нет комментариев. Ваш будет первым!