Вы используете незарегистрированную версию компонента "Вкладки"!

Поиск

(Jazz, Avant-Garde, Movie Soundtrack) Sun Ra and his Intergalactic Solar Arkestra - Soundtrack to the Film - Space is the Place - 1972 (Reissue 1993), APE (tracks+.cue), lossless

Треклист:
Sun Ra and his Intergalactic Solar Arkestra - Soundtrack to the Film - Space is the Place
Жанр: Jazz, Avant-Garde, Movie Soundtrack
Год выпуска диска: 1993
Производитель диска: Evidence (US) | Catalog#: ECD 22070
Аудио кодек: APE
Тип рипа: tracks+.cue
Битрейт аудио: lossless
Продолжительность: 74:21
Трэклист:
01. "It's After the End of the World" – 3:25
02. "Under Different Stars" – 3:55
03. "Discipline 33" – 3:22
04. "Watusa" – 7:11
05. "Calling Planet Earth" – 3:04
06. "I Am the Alter-Destiny" – 1:08
07. "Satellites Are Spinning" – 2:33
08. "Cosmic Forces" – 3:09
09. "Outer Spaceways Incorporated"– 3:00
10. "We Travel the Spaceways" – 2:28
11. "The Overseer" – 3:04
12. "Blackman/Love in Outer Space" – 16:53
13. "Mysterious Crystal" – 5:53
14. "I Am the Brother of the Wind" – 5:54
15. "We'll Wait for You" – 4:11
16. "Space Is the Place" – 4:23
Performers:
* Sun Ra – piano, Minimoog, Farfisa organ, Clavinet, Rocksichord, declamation
* Kwame Hadi – trumpet, conga, vibraphone
* Wayne Harris – trumpet
* Marshall Allen – alto saxophone, flute, oboe, bassoon, kora, cowbell, percussion
* Danny Davis – alto saxophone, flute, alto clarinet, percussion
* Larry Northington – alto saxophone, conga, percussion
* John Gilmore – tenor saxophone, drums, percussion, vocal
* Eloe Omoe – bass clarinet, bongos, percussion
* Danny Thompson – baritone saxophone, percussion
* Lex Humphries – drums
* Ken Moshesh – conga
* June Tyson – vocals, bells
Доп. информация:
 
EAC extraction logfile
Exact Audio Copy V0.99 prebeta 5 from 4. May 2009
EAC extraction logfile from 19. October 2009, 17:15
Sun Ra & his Intergalactic Solar Arkestra / Soundtrack to the Movie: Space Is The Place
Used drive : ATAPI DVD A DH16A1L Adapter: 2 ID: 1
Read mode : Secure
Utilize accurate stream : Yes
Defeat audio cache : Yes
Make use of C2 pointers : No
Read offset correction : 6
Overread into Lead-In and Lead-Out : No
Fill up missing offset samples with silence : Yes
Delete leading and trailing silent blocks : No
Null samples used in CRC calculations : Yes
Used interface : Native Win32 interface for Win NT & 2000
Gap handling : Appended to previous track
Used output format : User Defined Encoder
Selected bitrate : 1024 kBit/s
Quality : High
Add ID3 tag : No
Command line compressor : C:\Program Files\Exact Audio Copy\wapet\wapet.exe
Additional command line options : %d -t "Artist=%a" -t "Title=%t" -t "Album=%g" -t "Year=%y" -t "Track=%n" -t "Genre=%m" "C:\Program Files\Monkey's Audio\MAC.exe" %s %d -c2000
TOC of the extracted CD
Track | Start | Length | Start sector | End sector
---------------------------------------------------------
1 | 0:00.00 | 3:28.10 | 0 | 15609
2 | 3:28.10 | 3:58.47 | 15610 | 33506
3 | 7:26.57 | 3:24.30 | 33507 | 48836
4 | 10:51.12 | 7:14.08 | 48837 | 81394
5 | 18:05.20 | 3:07.22 | 81395 | 95441
6 | 21:12.42 | 1:12.15 | 95442 | 100856
7 | 22:24.57 | 2:35.65 | 100857 | 112546
8 | 25:00.47 | 3:11.50 | 112547 | 126921
9 | 28:12.22 | 3:03.28 | 126922 | 140674
10 | 31:15.50 | 2:31.22 | 140675 | 152021
11 | 33:46.72 | 3:08.23 | 152022 | 166144
12 | 36:55.20 | 16:55.02 | 166145 | 242271
13 | 53:50.22 | 5:55.45 | 242272 | 268941
14 | 59:45.67 | 5:56.70 | 268942 | 295711
15 | 65:42.62 | 4:15.05 | 295712 | 314841
16 | 69:57.67 | 4:23.38 | 314842 | 334604
Track 1
Filename D:\Music\Ripped tracks\New Folder\01 - It's After The End Of The World.wav
Pre-gap length 0:00:02.00
Peak level 99.2 %
Track quality 100.0 %
Test CRC D2B773EA
Copy CRC D2B773EA
Accurately ripped (confidence 8) [BD28902A]
Copy OK
Track 2
Filename D:\Music\Ripped tracks\New Folder\02 - Under Different Stars.wav
Pre-gap length 0:00:02.90
Peak level 96.4 %
Track quality 100.0 %
Test CRC 3D7E467E
Copy CRC 3D7E467E
Accurately ripped (confidence 9) [D062FE78]
Copy OK
Track 3
Filename D:\Music\Ripped tracks\New Folder\03 - Discipline 33.wav
Pre-gap length 0:00:02.89
Peak level 98.5 %
Track quality 100.0 %
Test CRC C9A6DCEC
Copy CRC C9A6DCEC
Accurately ripped (confidence 9) [6C1BBF82]
Copy OK
Track 4
Filename D:\Music\Ripped tracks\New Folder\04 - Watusa.wav
Pre-gap length 0:00:02.42
Peak level 95.0 %
Track quality 100.0 %
Test CRC B267BE37
Copy CRC B267BE37
Accurately ripped (confidence 8) [E4DC488F]
Copy OK
Track 5
Filename D:\Music\Ripped tracks\New Folder\05 - Calling Planet Earth.wav
Pre-gap length 0:00:02.86
Peak level 100.0 %
Track quality 99.9 %
Test CRC A4C9D2A3
Copy CRC A4C9D2A3
Accurately ripped (confidence 9) [985050D4]
Copy OK
Track 6
Filename D:\Music\Ripped tracks\New Folder\06 - I Am The Alter-Destiny.wav
Pre-gap length 0:00:02.60
Peak level 54.5 %
Track quality 100.0 %
Test CRC 97A86E34
Copy CRC 97A86E34
Accurately ripped (confidence 9) [CC06006B]
Copy OK
Track 7
Filename D:\Music\Ripped tracks\New Folder\07 - Satellites Are Spinning.wav
Pre-gap length 0:00:03.40
Peak level 100.0 %
Track quality 100.0 %
Test CRC 205ABDFD
Copy CRC 205ABDFD
Accurately ripped (confidence 9) [2C7070F6]
Copy OK
Track 8
Filename D:\Music\Ripped tracks\New Folder\08 - Cosmic Forces.wav
Pre-gap length 0:00:02.66
Peak level 92.1 %
Track quality 100.0 %
Test CRC 198A2839
Copy CRC 198A2839
Accurately ripped (confidence 9) [24C9D9FB]
Copy OK
Track 9
Filename D:\Music\Ripped tracks\New Folder\09 - Outer Spaceways Incorporated.wav
Pre-gap length 0:00:02.33
Peak level 99.1 %
Track quality 100.0 %
Test CRC 2FB42947
Copy CRC 2FB42947
Accurately ripped (confidence 9) [74C022D0]
Copy OK
Track 10
Filename D:\Music\Ripped tracks\New Folder\10 - We Travel The Spaceways.wav
Pre-gap length 0:00:03.30
Peak level 96.5 %
Track quality 100.0 %
Test CRC 2EFDAC2D
Copy CRC 2EFDAC2D
Accurately ripped (confidence 9) [62D14862]
Copy OK
Track 11
Filename D:\Music\Ripped tracks\New Folder\11 - The Overseer.wav
Pre-gap length 0:00:03.00
Peak level 81.6 %
Track quality 100.0 %
Test CRC 048FAB27
Copy CRC 048FAB27
Accurately ripped (confidence 9) [D2F1EE97]
Copy OK
Track 12
Filename D:\Music\Ripped tracks\New Folder\12 - Blackman,Love In Outer Space.wav
Pre-gap length 0:00:03.46
Peak level 98.7 %
Track quality 100.0 %
Test CRC 9C128D71
Copy CRC 9C128D71
Accurately ripped (confidence 7) [9034441F]
Copy OK
Track 13
Filename D:\Music\Ripped tracks\New Folder\13 - Mysterious Crystal.wav
Pre-gap length 0:00:01.80
Peak level 100.0 %
Track quality 100.0 %
Test CRC D2CC48D9
Copy CRC D2CC48D9
Accurately ripped (confidence 9) [EDAEE962]
Copy OK
Track 14
Filename D:\Music\Ripped tracks\New Folder\14 - I Am The Brother Of The Wind.wav
Pre-gap length 0:00:02.06
Peak level 87.7 %
Track quality 99.9 %
Test CRC 58EE001D
Copy CRC 58EE001D
Accurately ripped (confidence 7) [1B3A7CB4]
Copy OK
Track 15
Filename D:\Music\Ripped tracks\New Folder\15 - We'll Wait For You.wav
Pre-gap length 0:00:02.80
Peak level 81.2 %
Track quality 100.0 %
Test CRC 1BB347AF
Copy CRC 1BB347AF
Accurately ripped (confidence 9) [FA56A274]
Copy OK
Track 16
Filename D:\Music\Ripped tracks\New Folder\16 - Space Is The Place.wav
Pre-gap length 0:00:03.26
Peak level 74.5 %
Track quality 99.9 %
Test CRC C531A203
Copy CRC C531A203
Accurately ripped (confidence 3) [3A717B61]
Copy OK
All tracks accurately ripped
No errors occurred
End of status report
Any questions -> support@pro-jazz.com. По всем вопросам пишите -> support@pro-jazz.com
15:32
248
Нет комментариев. Ваш будет первым!