Вы используете незарегистрированную версию компонента "Вкладки"!

Поиск

(Jazz, Avant-Garde, Modern Creative, World Fusion)Marty Ehrlich's Dark Woods Ensemble - Just before the Dawn [1995], FLAC (tracks+.cue), lossless

(Jazz, Avant-Garde, Modern Creative, World Fusion)Marty Ehrlich's Dark Woods Ensemble - Just before the Dawn [1995], FLAC (tracks+.cue), lossless
Треклист:


Marty Ehrlich's Dark Woods Ensemble
Just before the Dawn
Жанр: Jazz, Avant-Garde, Modern Creative, World Fusion
Год выпуска: 1995
Формат: FLAC (tracks+.cue)
Битрейт аудио: lossless
Продолжительность
Источник: ed2k

tracks

1. Spirit of JAH (2:27)
2. Thickets (6:40)
3. Mudpie Anthem (7:56)
4. Dance No. 1 (6:07)
5. Flight (8:22)
6. The Folksinger (7:13)
7. Side by Side (6:59)
8. Underground/Overground (7:16)
9. Eliahu (6:31)


 
logfile
X Lossless Decoder version 20090320 (105.1)
XLD extraction logfile from 2009-03-24 16:32:22 -0400
Marty Ehrlich And The Dark Woods Ensemble / Just Before The Dawn
Used drive : MATSHITA DVD-R UJ-857E (revision ZA0E)
Use cdparanoia mode : YES (CDParanoia III 10.2 engine)
Disable audio cache : OK for the drive with cache less than 2750KB
Make use of C2 pointers : NO
Read offset correction : 102
Max retry count : 100
TOC of the extracted CD
Track | Start | Length | Start sector | End sector
---------------------------------------------------------
1 | 00:00:00 | 02:32:12 | 0 | 11411
2 | 02:32:12 | 06:45:73 | 11412 | 41859
3 | 09:18:10 | 08:00:15 | 41860 | 77874
4 | 17:18:25 | 06:12:12 | 77875 | 105786
5 | 23:30:37 | 08:27:50 | 105787 | 143861
6 | 31:58:12 | 07:16:10 | 143862 | 176571
7 | 39:14:22 | 07:04:05 | 176572 | 208376
8 | 46:18:27 | 07:16:45 | 208377 | 241121
9 | 53:34:72 | 06:32:18 | 241122 | 270539
Track 01
Filename : /Volumes/My Book/rip/01 Marty Ehrlich And The Dark Woods Ensemble - Spirit Of JAH.flac
/Volumes/My Book/rip/01 Marty Ehrlich And The Dark Woods Ensemble - Spirit Of JAH.mp3
CRC32 hash (test run) : 93E6476D
CRC32 hash : 93E6476D
CRC32 hash (skip zero) : 7D5813AD
AccurateRip signature : D106DBF9
->Track not present in AccurateRip database.
Statistics
Read error : 0
Skipped (treated as error) : 0
Edge jitter error (maybe fixed) : 0
Atom jitter error (maybe fixed) : 0
Drift error (maybe fixed) : 0
Dropped bytes error (maybe fixed) : 0
Duplicated bytes error (maybe fixed) : 0
Inconsistency in error sectors : 0
Track 02
Filename : /Volumes/My Book/rip/02 Marty Ehrlich And The Dark Woods Ensemble - Thickets.flac
/Volumes/My Book/rip/02 Marty Ehrlich And The Dark Woods Ensemble - Thickets.mp3
CRC32 hash (test run) : 134E5DBC
CRC32 hash : 134E5DBC
CRC32 hash (skip zero) : B6F20DC3
AccurateRip signature : 406F939A
->Track not present in AccurateRip database.
Statistics
Read error : 0
Skipped (treated as error) : 0
Edge jitter error (maybe fixed) : 0
Atom jitter error (maybe fixed) : 0
Drift error (maybe fixed) : 0
Dropped bytes error (maybe fixed) : 0
Duplicated bytes error (maybe fixed) : 0
Inconsistency in error sectors : 0
Track 03
Filename : /Volumes/My Book/rip/03 Marty Ehrlich And The Dark Woods Ensemble - Mudpie Anthem.flac
/Volumes/My Book/rip/03 Marty Ehrlich And The Dark Woods Ensemble - Mudpie Anthem.mp3
CRC32 hash (test run) : 49963354
CRC32 hash : 49963354
CRC32 hash (skip zero) : B5A77B56
AccurateRip signature : DE716034
->Track not present in AccurateRip database.
Statistics
Read error : 0
Skipped (treated as error) : 0
Edge jitter error (maybe fixed) : 0
Atom jitter error (maybe fixed) : 0
Drift error (maybe fixed) : 0
Dropped bytes error (maybe fixed) : 0
Duplicated bytes error (maybe fixed) : 0
Inconsistency in error sectors : 0
Track 04
Filename : /Volumes/My Book/rip/04 Marty Ehrlich And The Dark Woods Ensemble - Dance No. 1.flac
/Volumes/My Book/rip/04 Marty Ehrlich And The Dark Woods Ensemble - Dance No. 1.mp3
CRC32 hash (test run) : 3BB45928
CRC32 hash : 3BB45928
CRC32 hash (skip zero) : 113B31A7
AccurateRip signature : 8A56E4F5
->Track not present in AccurateRip database.
Statistics
Read error : 0
Skipped (treated as error) : 0
Edge jitter error (maybe fixed) : 0
Atom jitter error (maybe fixed) : 0
Drift error (maybe fixed) : 0
Dropped bytes error (maybe fixed) : 0
Duplicated bytes error (maybe fixed) : 0
Inconsistency in error sectors : 0
Track 05
Filename : /Volumes/My Book/rip/05 Marty Ehrlich And The Dark Woods Ensemble - Flight.flac
/Volumes/My Book/rip/05 Marty Ehrlich And The Dark Woods Ensemble - Flight.mp3
CRC32 hash (test run) : 18D3C674
CRC32 hash : 18D3C674
CRC32 hash (skip zero) : 8886289D
AccurateRip signature : D35FB4A0
->Track not present in AccurateRip database.
Statistics
Read error : 0
Skipped (treated as error) : 0
Edge jitter error (maybe fixed) : 0
Atom jitter error (maybe fixed) : 0
Drift error (maybe fixed) : 0
Dropped bytes error (maybe fixed) : 0
Duplicated bytes error (maybe fixed) : 0
Inconsistency in error sectors : 0
Track 06
Filename : /Volumes/My Book/rip/06 Marty Ehrlich And The Dark Woods Ensemble - The Folksinger.flac
/Volumes/My Book/rip/06 Marty Ehrlich And The Dark Woods Ensemble - The Folksinger.mp3
CRC32 hash (test run) : 02C898A5
CRC32 hash : 02C898A5
CRC32 hash (skip zero) : B6D903A8
AccurateRip signature : FD62EDD8
->Track not present in AccurateRip database.
Statistics
Read error : 0
Skipped (treated as error) : 0
Edge jitter error (maybe fixed) : 0
Atom jitter error (maybe fixed) : 0
Drift error (maybe fixed) : 0
Dropped bytes error (maybe fixed) : 0
Duplicated bytes error (maybe fixed) : 0
Inconsistency in error sectors : 0
Track 07
Filename : /Volumes/My Book/rip/07 Marty Ehrlich And The Dark Woods Ensemble - Side By Side.flac
/Volumes/My Book/rip/07 Marty Ehrlich And The Dark Woods Ensemble - Side By Side.mp3
CRC32 hash (test run) : 6CE86A90
CRC32 hash : 6CE86A90
CRC32 hash (skip zero) : 247F5CA2
AccurateRip signature : DC8A26E4
->Track not present in AccurateRip database.
Statistics
Read error : 0
Skipped (treated as error) : 0
Edge jitter error (maybe fixed) : 0
Atom jitter error (maybe fixed) : 0
Drift error (maybe fixed) : 0
Dropped bytes error (maybe fixed) : 0
Duplicated bytes error (maybe fixed) : 0
Inconsistency in error sectors : 0
Track 08
Filename : /Volumes/My Book/rip/08 Marty Ehrlich And The Dark Woods Ensemble - Underground/Overground.flac
/Volumes/My Book/rip/08 Marty Ehrlich And The Dark Woods Ensemble - Underground/Overground.mp3
CRC32 hash (test run) : 11FBCBE5
CRC32 hash : 11FBCBE5
CRC32 hash (skip zero) : CBF34909
AccurateRip signature : D86889F7
->Track not present in AccurateRip database.
Statistics
Read error : 0
Skipped (treated as error) : 0
Edge jitter error (maybe fixed) : 0
Atom jitter error (maybe fixed) : 0
Drift error (maybe fixed) : 0
Dropped bytes error (maybe fixed) : 0
Duplicated bytes error (maybe fixed) : 0
Inconsistency in error sectors : 0
Track 09
Filename : /Volumes/My Book/rip/09 Marty Ehrlich And The Dark Woods Ensemble - Eliahu.flac
/Volumes/My Book/rip/09 Marty Ehrlich And The Dark Woods Ensemble - Eliahu.mp3
CRC32 hash (test run) : 54EEEA81
CRC32 hash : 54EEEA81
CRC32 hash (skip zero) : 024214AE
AccurateRip signature : 0D3AEB78
->Track not present in AccurateRip database.
Statistics
Read error : 0
Skipped (treated as error) : 0
Edge jitter error (maybe fixed) : 0
Atom jitter error (maybe fixed) : 0
Drift error (maybe fixed) : 0
Dropped bytes error (maybe fixed) : 0
Duplicated bytes error (maybe fixed) : 0
Inconsistency in error sectors : 0
No errors occurred
End of status report

 
.cue
TITLE "Just Before The Dawn"
PERFORMER "Marty Ehrlich's Dark Woods Ensemble"REM GENRE "Jazz"
REM DATE 1995
FILE "01 Spirit Of JAH.wav" WAVE
TRACK 01 AUDIO
TITLE "Spirit Of JAH"
INDEX 01 00:00:00
TRACK 02 AUDIO
TITLE "Thickets"
INDEX 00 02:27:30
FILE "02 Thickets.wav" WAVE
INDEX 01 00:00:00
TRACK 03 AUDIO
TITLE "Mudpie Anthem"
INDEX 00 06:40:33
FILE "03 Mudpie Anthem.wav" WAVE
INDEX 01 00:00:00
TRACK 04 AUDIO
TITLE "Dance No. 1"
INDEX 00 07:56:17
FILE "04 Dance No. 1.wav" WAVE
INDEX 01 00:00:00
TRACK 05 AUDIO
TITLE "Flight"
INDEX 00 06:08:17
FILE "05 Flight.wav" WAVE
INDEX 01 00:00:00
TRACK 06 AUDIO
TITLE "The Folksinger"
INDEX 00 08:22:60
FILE "06 The Folksinger.wav" WAVE
INDEX 01 00:00:00
TRACK 07 AUDIO
TITLE "Side By Side"
INDEX 00 07:14:10
FILE "07 Side By Side.wav" WAVE
INDEX 01 00:00:00
TRACK 08 AUDIO
TITLE "Underground/Overground"
INDEX 00 07:00:03
FILE "08 UndergroundOverground.wav" WAVE
INDEX 01 00:00:00
TRACK 09 AUDIO
TITLE "Eliahu"
INDEX 00 07:16:30
FILE "09 Eliahu.wav" WAVE
INDEX 01 00:00:00

 
accurip
[CUETools log; Date: 22/11/2011 10:33:32 AM; Version: 2.1.2a]
[CTDB TOCID: n..Qh2KjMMdnAju5j.1i4c2BzrY-] disk not present in database.
[AccurateRip ID: 00137ddf-0092f342-5d0e1709] found.
Track [ CRC ] Status
01 [d106dbf9] (3/3) Accurately ripped
02 [406f939a] (3/3) Accurately ripped
03 [de716034] (3/3) Accurately ripped
04 [8a56e4f5] (3/3) Accurately ripped
05 [d35fb4a0] (3/3) Accurately ripped
06 [fd62edd8] (3/3) Accurately ripped
07 [dc8a26e4] (3/3) Accurately ripped
08 [d86889f7] (3/3) Accurately ripped
09 [0d3aeb78] (3/3) Accurately ripped
Track Peak [ CRC32 ] [W/O NULL]
-- 94.2 [61A92119] [6EB37CD0]
01 94.1 [93E6476D] [7D5813AD]
02 62.2 [134E5DBC] [B6F20DC3]
03 66.4 [49963354] [B5A77B56]
04 81.0 [3BB45928] [113B31A7]
05 89.4 [18D3C674] [8886289D]
06 91.2 [02C898A5] [B6D903A8]
07 88.2 [6CE86A90] [247F5CA2]
08 94.2 [11FBCBE5] [CBF34909]
09 85.5 [54EEEA81] [024214AE]

другие релизы
Any questions -> support@pro-jazz.com. По всем вопросам пишите -> support@pro-jazz.com
10:54
223
Нет комментариев. Ваш будет первым!