Вы используете незарегистрированную версию компонента "Вкладки"!

Поиск

(jazz, avant-garde,modern creative) Eric Watson, John Lindberg, Steve Lacy -The Amiens Concert (1987), FLAC (tracks+.cue), lossless

(jazz, avant-garde,modern creative) Eric Watson, John Lindberg, Steve Lacy -The Amiens Concert (1987), FLAC (tracks+.cue), lossless
Треклист:


Eric Watson, John Lindberg, Steve Lacy
The Amiens Concert
Жанр: jazz, avant-garde,modern creative
Год выпуска: 1987
Формат: FLAC (tracks+.cue)
Битрейт аудио: lossless
Продолжительность
Источник: ed2k
steve lacy-soprano sax - eric watson-piano - john lindberg-bass
recorded nov26,27,28 1987 at la maison de la culture d'amiens

tracks

1. Daughter of Darkness
2. Newcanaan con Man
3. Juggernaut
4. Holding
5. Terrace
6. Substance Abuse


 
logfile
Exact Audio Copy V0.99 prebeta 4 from 23. January 2008
EAC extraction logfile from 12. April 2008, 23:09
lacy-watson-lindberg - amiens concert / steve lacy-soprano sax - eric watson-piano - john lindberg-bass
Used drive : BENQ DVD DD DW1640 Adapter: 1 ID: 1
Read mode : Secure
Utilize accurate stream : Yes
Defeat audio cache : Yes
Make use of C2 pointers : No
Read offset correction : 618
Overread into Lead-In and Lead-Out : No
Fill up missing offset samples with silence : Yes
Delete leading and trailing silent blocks : No
Null samples used in CRC calculations : No
Used interface : Installed external ASPI interface
Gap handling : Appended to previous track
Used output format : Internal WAV Routines
Sample format : 44.100 Hz; 16 Bit; Stereo
TOC of the extracted CD
Track | Start | Length | Start sector | End sector
---------------------------------------------------------
1 | 0:00.00 | 6:10.13 | 0 | 27762
2 | 6:10.13 | 8:54.00 | 27763 | 67812
3 | 15:04.13 | 9:37.00 | 67813 | 111087
4 | 24:41.13 | 8:49.57 | 111088 | 150819
5 | 33:30.70 | 7:54.18 | 150820 | 186387
6 | 41:25.13 | 5:21.20 | 186388 | 210482
Track 1
Filename C:\out\eac\steve lacy-watson-lindberg\01-daughter_of_darkness.wav
Pre-gap length 0:00:02.00
Peak level 77.6 %
Track quality 100.0 %
Test CRC FFC49BA7
Copy CRC FFC49BA7
Track not present in AccurateRip database
Copy OK
Track 2
Filename C:\out\eac\steve lacy-watson-lindberg\02-newcanaan_con_man.wav
Pre-gap length 0:00:01.73
Peak level 97.3 %
Track quality 100.0 %
Test CRC 3737003A
Copy CRC 3737003A
Track not present in AccurateRip database
Copy OK
Track 3
Filename C:\out\eac\steve lacy-watson-lindberg\03-juggernaut.wav
Pre-gap length 0:00:02.73
Peak level 92.5 %
Track quality 100.0 %
Test CRC 5D34720B
Copy CRC 5D34720B
Track not present in AccurateRip database
Copy OK
Track 4
Filename C:\out\eac\steve lacy-watson-lindberg\04-holding.wav
Pre-gap length 0:00:03.73
Peak level 95.0 %
Track quality 100.0 %
Test CRC E2EA82C1
Copy CRC E2EA82C1
Track not present in AccurateRip database
Copy OK
Track 5
Filename C:\out\eac\steve lacy-watson-lindberg\05-the_terrace.wav
Pre-gap length 0:00:03.49
Peak level 90.7 %
Track quality 100.0 %
Test CRC D94C9BE3
Copy CRC D94C9BE3
Track not present in AccurateRip database
Copy OK
Track 6
Filename C:\out\eac\steve lacy-watson-lindberg\06-substance_abuse.wav
Pre-gap length 0:00:02.73
Peak level 79.3 %
Track quality 100.0 %
Test CRC B549EAED
Copy CRC B549EAED
Track not present in AccurateRip database
Copy OK
None of the tracks are present in the AccurateRip database
No errors occurred
End of status report

другие релизы
Any questions -> support@pro-jazz.com. По всем вопросам пишите -> support@pro-jazz.com
14:16
222
Нет комментариев. Ваш будет первым!