Вы используете незарегистрированную версию компонента "Вкладки"!

Поиск

(jazz, avant-garde) John Lindberg - Ruminations Upon Ives And Gottschalk 2003, FLAC (tracks), lossless

(jazz, avant-garde) John Lindberg - Ruminations Upon Ives And Gottschalk 2003, FLAC (tracks), lossless
Треклист:


John Lindberg
Ruminations Upon Ives And Gottschalk
Жанр: jazz, avant-garde
Год выпуска: 2003
Формат: FLAC (tracks+.cue)
Битрейт аудио: lossless
Продолжительность
Источник: ed2k

tracks

01 - Powerful Reflections .flac
02 - Yatan-Na .flac
03 - Beau Theme .flac
04 - Spirit Great, Golden Shine .flac
05 - Generations .flac
06 - Implications .flac
07 - Upon Powerhouses .flac


 
.log
Exact Audio Copy V0.99 prebeta 4 from 23. January 2008
EAC extraction logfile from 13. November 2009, 11:08
John Lindberg / Ruminations Upon Ives And Gottschalk
Used drive : Optiarc DVD RW AD-7200A Adapter: 0 ID: 1
Read mode : Secure
Utilize accurate stream : Yes
Defeat audio cache : Yes
Make use of C2 pointers : No
Read offset correction : 48
Overread into Lead-In and Lead-Out : No
Fill up missing offset samples with silence : Yes
Delete leading and trailing silent blocks : No
Null samples used in CRC calculations : Yes
Used interface : Installed external ASPI interface
Gap handling : Appended to previous track
Used output format : User Defined Encoder
Selected bitrate : 1024 kBit/s
Quality : High
Add ID3 tag : No
Command line compressor : C:\Program Files\Exact Audio Copy\flac.exe
Additional command line options : -8 -A tukey(0.25) -A gauss(0.1875) -b 4096 -V -T "artist=%a" -T "title=%t" -T "album=%g" -T "date=%y" -T "tracknumber=%n" -T "genre=%m" %s --sector-align
TOC of the extracted CD
Track | Start | Length | Start sector | End sector
---------------------------------------------------------
1 | 0:00.00 | 5:12.34 | 0 | 23433
2 | 5:12.34 | 9:49.12 | 23434 | 67620
3 | 15:01.46 | 10:14.62 | 67621 | 113732
4 | 25:16.33 | 4:43.03 | 113733 | 134960
5 | 29:59.36 | 5:49.71 | 134961 | 161206
6 | 35:49.32 | 5:06.30 | 161207 | 184186
7 | 40:55.62 | 5:28.24 | 184187 | 208810
Track 1
Filename H:\John Lindberg - Ruminations Upon Ives And Gottschalk\01 - John Lindberg - Powerful Reflections .wav
Pre-gap length 0:00:02.00
Peak level 100.0 %
Track quality 99.9 %
Test CRC BF26B7C3
Copy CRC BF26B7C3
Track not present in AccurateRip database
Copy OK
Track 2
Filename H:\John Lindberg - Ruminations Upon Ives And Gottschalk\02 - John Lindberg - Yatan-Na .wav
Pre-gap length 0:00:01.05
Peak level 100.0 %
Track quality 100.0 %
Test CRC 3C44CBD1
Copy CRC 3C44CBD1
Track not present in AccurateRip database
Copy OK
Track 3
Filename H:\John Lindberg - Ruminations Upon Ives And Gottschalk\03 - John Lindberg - Beau Theme .wav
Pre-gap length 0:00:00.14
Peak level 62.3 %
Track quality 100.0 %
Test CRC 10A50D28
Copy CRC 10A50D28
Track not present in AccurateRip database
Copy OK
Track 4
Filename H:\John Lindberg - Ruminations Upon Ives And Gottschalk\04 - John Lindberg - Spirit Great, Golden Shine .wav
Pre-gap length 0:00:02.00
Peak level 84.9 %
Track quality 100.0 %
Test CRC 274DDC77
Copy CRC 274DDC77
Track not present in AccurateRip database
Copy OK
Track 5
Filename H:\John Lindberg - Ruminations Upon Ives And Gottschalk\05 - John Lindberg - Generations .wav
Pre-gap length 0:00:00.52
Peak level 100.0 %
Track quality 100.0 %
Test CRC ABFA5451
Copy CRC ABFA5451
Track not present in AccurateRip database
Copy OK
Track 6
Filename H:\John Lindberg - Ruminations Upon Ives And Gottschalk\06 - John Lindberg - Implications .wav
Pre-gap length 0:00:00.74
Peak level 100.0 %
Track quality 100.0 %
Test CRC 60574C88
Copy CRC 60574C88
Track not present in AccurateRip database
Copy OK
Track 7
Filename H:\John Lindberg - Ruminations Upon Ives And Gottschalk\07 - John Lindberg - Upon Powerhouses .wav
Pre-gap length 0:00:00.32
Peak level 100.0 %
Track quality 100.0 %
Test CRC 15669767
Copy CRC 15669767
Track not present in AccurateRip database
Copy OK
None of the tracks are present in the AccurateRip database
No errors occurred
End of status report
 
.cue
REM GENRE Jazz
REM DISCID 4A0AE007
REM COMMENT "ExactAudioCopy v0.99pb4"
PERFORMER "John Lindberg"
TITLE "Ruminations Upon Ives And Gottschalk"
FILE "01 - John Lindberg - Powerful Reflections .wav" WAVE
TRACK 01 AUDIO
TITLE "Powerful Reflections"
PERFORMER "John Lindberg"
INDEX 01 00:00:00
TRACK 02 AUDIO
TITLE "Yatan-Na"
PERFORMER "John Lindberg"
INDEX 00 05:11:30
FILE "02 - John Lindberg - Yatan-Na .wav" WAVE
INDEX 01 00:00:00
TRACK 03 AUDIO
TITLE "Beau Theme"
PERFORMER "John Lindberg"
INDEX 00 09:49:01
FILE "03 - John Lindberg - Beau Theme .wav" WAVE
INDEX 01 00:00:00
TRACK 04 AUDIO
TITLE "Spirit Great, Golden Shine"
PERFORMER "John Lindberg"
INDEX 00 10:12:62
FILE "04 - John Lindberg - Spirit Great, Golden Shine .wav" WAVE
INDEX 01 00:00:00
TRACK 05 AUDIO
TITLE "Generations"
PERFORMER "John Lindberg"
INDEX 00 04:42:39
FILE "05 - John Lindberg - Generations .wav" WAVE
INDEX 01 00:00:00
TRACK 06 AUDIO
TITLE "Implications"
PERFORMER "John Lindberg"
INDEX 00 05:49:15
FILE "06 - John Lindberg - Implications .wav" WAVE
INDEX 01 00:00:00
TRACK 07 AUDIO
TITLE "Upon Powerhouses"
PERFORMER "John Lindberg"
INDEX 00 05:06:06
FILE "07 - John Lindberg - Upon Powerhouses .wav" WAVE
INDEX 01 00:00:00

другие релизы
Any questions -> support@pro-jazz.com. По всем вопросам пишите -> support@pro-jazz.com
22:51
156
Нет комментариев. Ваш будет первым!