Вы используете незарегистрированную версию компонента "Вкладки"!

Поиск

(Jazz, Avant-Garde) Joachim Kuhn, Mark Nauseef, Tony Newton, Miroslav Tadic - Let's Be Generous - 1991, FLAC (tracks+.cue), lossless

(Jazz, Avant-Garde) Joachim Kuhn, Mark Nauseef, Tony Newton, Miroslav Tadic - Let's Be Generous - 1991, FLAC (tracks+.cue), lossless
Треклист:
Joachim Kuhn, Mark Nauseef, Tony Newton, Miroslav Tadic - Let's Be Generous
Жанр: Jazz, Avant-Garde
Год выпуска диска: 1991
Производитель диска: CMP, Germany
Аудио кодек: FLAC
Тип рипа: tracks+.cue
Битрейт аудио: lossless
Продолжительность: 50:47
Трэклист:
1 The Prophet (Dolphy, Eric) 12:00
2 Senegal (Kuhn, Joachim) 4:13
3 Avant Garage: Mali Mis Zubonja/Plums/Skrga (Tadic, Miroslav) 2:21
4 Always Yours (Kuhn, Joachim) 5:43
5 Something Sweet, Something Tender (Dolphy, Eric) 3:00
6 The Captain and I (Kuhn, Joachim) 4:06
7 Heavy Hanging (Kuhn, Joachim) 4:29
8 Don't Disturb My Groove (Kuhn, Joachim) 3:20
9 Snake Oil (Newton, Tony) 1:23
10 Bintang (Nauseef, Mark) 1:23
11 Kissing the Feet (Kuhn, Joachim/Nauseef, Mark/Newton, Tony/Tadic, Miroslav) 8:28
Доп. информация:
Joachim Kuhn - Electronic Keyboards, Piano
Mark Nauseef - Drums, Gongs & Cymbals (Korean, Balinese, Chinese, Japanese & German), Chinese Drums, Temple Bells, Metal Plates, "Magic Drum", ADD II Digital Drums & Junk
Tony Newton - Bass
Miroslav Tadic - Guitar
 
Отчёт EAC
Exact Audio Copy V0.99 prebeta 5 from 4. May 2009
EAC extraction logfile from 11. July 2009, 21:02
Joachim Kuhn,Mark Nauseef,Tony Newton,Miroslav Tadic / Let's Be Generous
Used drive : ASUS DRW-20B1ST Adapter: 3 ID: 0
Read mode : Secure
Utilize accurate stream : Yes
Defeat audio cache : Yes
Make use of C2 pointers : No
Read offset correction : 6
Overread into Lead-In and Lead-Out : No
Fill up missing offset samples with silence : Yes
Delete leading and trailing silent blocks : No
Null samples used in CRC calculations : Yes
Used interface : Native Win32 interface for Win NT & 2000
Gap handling : Appended to previous track
Used output format : User Defined Encoder
Selected bitrate : 768 kBit/s
Quality : High
Add ID3 tag : No
Command line compressor : C:\Program Files\Exact Audio Copy\FLAC\FLAC.EXE
Additional command line options : -8 -V -T "ARTIST=%a" -T "TITLE=%t" -T "ALBUM=%g" -T "DATE=%y" -T "TRACKNUMBER=%n" -T "GENRE=%m" -T "COMMENT=EAC FLAC -8" %s
TOC of the extracted CD
Track | Start | Length | Start sector | End sector
---------------------------------------------------------
1 | 0:00.00 | 12:08.25 | 0 | 54624
2 | 12:08.25 | 4:14.08 | 54625 | 73682
3 | 16:22.33 | 2:18.60 | 73683 | 84092
4 | 18:41.18 | 5:42.32 | 84093 | 109774
5 | 24:23.50 | 3:00.25 | 109775 | 123299
6 | 27:24.00 | 4:10.58 | 123300 | 142107
7 | 31:34.58 | 4:33.10 | 142108 | 162592
8 | 36:07.68 | 3:20.65 | 162593 | 177657
9 | 39:28.58 | 1:24.65 | 177658 | 184022
10 | 40:53.48 | 1:22.10 | 184023 | 190182
11 | 42:15.58 | 8:31.12 | 190183 | 228519
Track 1
Filename I:\Torrent\Раздачи\Joachim Kuhn,Mark Nauseef,Tony Newton,Miroslav Tadic - Let's Be Generous (1990) FLAC]\01. The Prophet.wav
Pre-gap length 0:00:02.00
Peak level 100.0 %
Track quality 100.0 %
Test CRC CE5A0AF1
Copy CRC CE5A0AF1
Accurately ripped (confidence 4) [9BAEEB2B]
Copy OK
Track 2
Filename I:\Torrent\Раздачи\Joachim Kuhn,Mark Nauseef,Tony Newton,Miroslav Tadic - Let's Be Generous (1990) FLAC]\02. Senegal.wav
Pre-gap length 0:00:01.45
Peak level 100.0 %
Track quality 100.0 %
Test CRC 78973201
Copy CRC 78973201
Accurately ripped (confidence 4) [C9F894C7]
Copy OK
Track 3
Filename I:\Torrent\Раздачи\Joachim Kuhn,Mark Nauseef,Tony Newton,Miroslav Tadic - Let's Be Generous (1990) FLAC]\03. Avant Garage.wav
Peak level 100.0 %
Track quality 99.9 %
Test CRC 5297FE25
Copy CRC 5297FE25
Accurately ripped (confidence 4) [9C155657]
Copy OK
Track 4
Filename I:\Torrent\Раздачи\Joachim Kuhn,Mark Nauseef,Tony Newton,Miroslav Tadic - Let's Be Generous (1990) FLAC]\04. Always Yours.wav
Peak level 100.0 %
Track quality 100.0 %
Test CRC 4E93E20F
Copy CRC 4E93E20F
Accurately ripped (confidence 4) [2C8F80DB]
Copy OK
Track 5
Filename I:\Torrent\Раздачи\Joachim Kuhn,Mark Nauseef,Tony Newton,Miroslav Tadic - Let's Be Generous (1990) FLAC]\05. Something Sweet, Something Tender.wav
Peak level 100.0 %
Track quality 99.9 %
Test CRC B2A75F79
Copy CRC B2A75F79
Accurately ripped (confidence 4) [763A7839]
Copy OK
Track 6
Filename I:\Torrent\Раздачи\Joachim Kuhn,Mark Nauseef,Tony Newton,Miroslav Tadic - Let's Be Generous (1990) FLAC]\06. The Captain And I.wav
Peak level 100.0 %
Track quality 100.0 %
Test CRC 2F6B682B
Copy CRC 2F6B682B
Accurately ripped (confidence 4) [53356BCC]
Copy OK
Track 7
Filename I:\Torrent\Раздачи\Joachim Kuhn,Mark Nauseef,Tony Newton,Miroslav Tadic - Let's Be Generous (1990) FLAC]\07. Heavy Hanging.wav
Pre-gap length 0:00:01.13
Peak level 100.0 %
Track quality 100.0 %
Test CRC FC1131F3
Copy CRC FC1131F3
Accurately ripped (confidence 4) [229D5EA7]
Copy OK
Track 8
Filename I:\Torrent\Раздачи\Joachim Kuhn,Mark Nauseef,Tony Newton,Miroslav Tadic - Let's Be Generous (1990) FLAC]\08. Don't Disturb My Groove.wav
Pre-gap length 0:00:02.05
Peak level 100.0 %
Track quality 100.0 %
Test CRC 998C5023
Copy CRC 998C5023
Accurately ripped (confidence 4) [DB17DC19]
Copy OK
Track 9
Filename I:\Torrent\Раздачи\Joachim Kuhn,Mark Nauseef,Tony Newton,Miroslav Tadic - Let's Be Generous (1990) FLAC]\09. Snake Oil.wav
Peak level 100.0 %
Track quality 100.0 %
Test CRC 136706DB
Copy CRC 136706DB
Accurately ripped (confidence 4) [F4BD691F]
Copy OK
Track 10
Filename I:\Torrent\Раздачи\Joachim Kuhn,Mark Nauseef,Tony Newton,Miroslav Tadic - Let's Be Generous (1990) FLAC]\10. Bintang.wav
Pre-gap length 0:00:01.08
Peak level 75.1 %
Track quality 100.0 %
Test CRC 2E85EBE7
Copy CRC 2E85EBE7
Accurately ripped (confidence 4) [B84CA502]
Copy OK
Track 11
Filename I:\Torrent\Раздачи\Joachim Kuhn,Mark Nauseef,Tony Newton,Miroslav Tadic - Let's Be Generous (1990) FLAC]\11. Kissing The Feet.wav
Peak level 100.0 %
Track quality 100.0 %
Test CRC BE4A7402
Copy CRC BE4A7402
Accurately ripped (confidence 4) [01B0B8A9]
Copy OK
All tracks accurately ripped
No errors occurred
End of status report
Собственный рип с оригинального диска. Сканы внутри.
Any questions -> support@pro-jazz.com. По всем вопросам пишите -> support@pro-jazz.com
12:57
191
Нет комментариев. Ваш будет первым!