Поиск

(Jazz,Avant-Garde) Jimmy Giuffre, Paul Bley, Steve Swallow. Emphasis & Flight (hatOLOGY) - 1961, APE (image + .cue), lossless

(Jazz,Avant-Garde) Jimmy Giuffre, Paul Bley, Steve Swallow. Emphasis & Flight (hatOLOGY) - 1961, APE (image + .cue), lossless
Треклист:
Jimmy Giuffre, Paul Bley, Steve Swallow. Emphasis & Flight (hatOLOGY)

Страна: Switzerland
Жанр: Jazz,Avant-Garde,Live
Год выпуска: 1961
Формат: APE (image + .cue)
Битрейт аудио: lossless
Продолжительность: I CD-52:00;II CD-62:37
Трэклист:
CD I: 1 Whirrrr Giuffre 4:14
2 Emphasis Giuffre 7:48
3 Sonic Giuffre 5:17
4 Venture Giuffre 4:21
5 Jesus Maria Bley 6:13
6 Stretching Out (Suite for Germany) Giuffre 11:19
7 Carla Bley 5:45
8 Cry, Want Giuffre 6:57 CD II 9 Call of the Centaur Giuffre 3:58
10 Postures Bley 6:56
11 Sonic Giuffre 5:21
12 Goodbye Jenkins 5:55
13 Stretching Out (Suite for Germany) Giuffre 11:12
14 Cry, Want Giuffre 7:33
15 Flight Giuffre 5:39 16 That's True, That's True Giuffre 8:39
17 Trance Giuffre 4:50
18 Whirrrr Giuffre 2:29
Доп. информация: Сканы в наличии . Еще Giuffre:http://rutracker.org/forum/viewtopic.php?t=641978 EAC CD I:
 
скрытый текст
Exact Audio Copy V0.99 prebeta 3 from 28. July 2007
Отчёт EAC об извлечении, выполненном 2. февраля 2008, 22:32
Jimmy Giuffre 3 / Emphasis, Stuttgart 1961
Дисковод: TEAC CD-W540E Adapter: 0 ID: 1
Режим чтения : Достоверность
Использование точного потока : Да
Отключение кэша аудио : Да
Использование указателей C2 : Нет
Коррекция смещения при чтении : 686
Способность читать области Lead-in и Lead-out : Нет
Заполнение пропущенных сэмплов тишиной : Да
Удаление блоков с тишиной в начале и конце : Нет
При вычислениях CRC использовались нулевые сэмплы : Да
Интерфейс : Установленный внешний ASPI-интерфейс
Выходной формат : Monkey's Audio Lossless Encoder v3.99 DLL
Формат сэмплов : High Lossless Compression
TOC извлечённого CD
Трек | Старт | Длительность | Начальный сектор | Конечный сектор
---------------------------------------------------------------------
1 | 0:00.00 | 4:14.21 | 0 | 19070
2 | 4:14.21 | 7:48.21 | 19071 | 54191
3 | 12:02.42 | 5:17.16 | 54192 | 77982
4 | 17:19.58 | 4:21.01 | 77983 | 97558
5 | 21:40.59 | 6:13.50 | 97559 | 125583
6 | 27:54.34 | 11:19.37 | 125584 | 176545
7 | 39:13.71 | 5:45.35 | 176546 | 202455
8 | 44:59.31 | 6:57.06 | 202456 | 233736
Характеристики диапазона извлечения и сообщения об ошибках
Выбранный диапазон
Имя файла J:\Downloads\Jimmy Giuffre\J.Giuffre,P.Bley,S.Swallow.Emphasis & Flight(1961)\CD 1.Emphasis\Jimmy Giuffre 3 - Emphasis, Stuttgart 1961.ape
Пиковый уровень 76.2 %
Качество диапазона 100.0 %
CRC копии D382B522
Копирование... OK
Ошибок не произошло
Конец отчёта
EAC CD II:
 
скрытый текст
Exact Audio Copy V0.99 prebeta 3 from 28. July 2007
Отчёт EAC об извлечении, выполненном 2. февраля 2008, 23:00
Jimmy Giuffre 3 / Flight, Bremen 1961
Дисковод: TEAC CD-W540E Adapter: 0 ID: 1
Режим чтения : Достоверность
Использование точного потока : Да
Отключение кэша аудио : Да
Использование указателей C2 : Нет
Коррекция смещения при чтении : 686
Способность читать области Lead-in и Lead-out : Нет
Заполнение пропущенных сэмплов тишиной : Да
Удаление блоков с тишиной в начале и конце : Нет
При вычислениях CRC использовались нулевые сэмплы : Да
Интерфейс : Установленный внешний ASPI-интерфейс
Выходной формат : Monkey's Audio Lossless Encoder v3.99 DLL
Формат сэмплов : High Lossless Compression
TOC извлечённого CD
Трек | Старт | Длительность | Начальный сектор | Конечный сектор
---------------------------------------------------------------------
1 | 0:00.00 | 3:58.52 | 0 | 17901
2 | 3:58.52 | 6:56.00 | 17902 | 49101
3 | 10:54.52 | 5:21.28 | 49102 | 73204
4 | 16:16.05 | 5:55.37 | 73205 | 99866
5 | 22:11.42 | 11:12.10 | 99867 | 150276
6 | 33:23.52 | 7:33.38 | 150277 | 184289
7 | 40:57.15 | 5:39.15 | 184290 | 209729
8 | 46:36.30 | 8:39.22 | 209730 | 248676
9 | 55:15.52 | 4:50.38 | 248677 | 270464
10 | 60:06.15 | 2:29.40 | 270465 | 281679
Характеристики диапазона извлечения и сообщения об ошибках
Выбранный диапазон
Имя файла J:\Downloads\Jimmy Giuffre\J.Giuffre,P.Bley,S.Swallow.Emphasis & Flight(1961)\CD 2.Flight\Jimmy Giuffre 3 - Flight, Bremen 1961.ape
Пиковый уровень 78.9 %
Качество диапазона 100.0 %
CRC копии E2C6AB75
Копирование... OK
Ошибок не произошло
Конец отчёта
Приватный:
Нет (DHT включён)
Размер:
375.30 Мб (393,534,943 байт) » файлов: 14
Участники:
0 раздают, 0 качают (0 участников всего)
Внешние участники:
1 раздают, 0 качают (1 участников всего) [ Обновить ]
Есть вопросы - пишите личное сообщение пользователю M0p94ok.
23:17
67
Нет комментариев. Ваш будет первым!