Вы используете незарегистрированную версию компонента "Вкладки"!

Поиск

(jazz, avant-garde) Jason Kao Hwang - Edge (2006), FLAC (tracks+.cue), lossless

(jazz, avant-garde) Jason Kao Hwang - Edge (2006), FLAC (tracks+.cue), lossless
Треклист:


Jason Kao Hwang - Edge
Жанр: jazz, avant-garde
Год выпуска: 2006
Формат: FLAC (tracks+.cue)
Битрейт аудио: lossless
Продолжительность
Источник: ed2k
Наличие сканов в содержимом раздачи:
Taylor Ho Bynum – cornet/flugelhorn
Andrew Drury – drum set
Ken Filiano - string bass
Jason Kao Hwang – composer/violin

tracks

1. No Myth
2. Threads
3. Parallel Meditations
4. Grassy Hills


 
.log
Exact Audio Copy V0.99 prebeta 4 from 23. January 2008
EAC extraction logfile from 14. January 2009, 10:42
Jason Kao Hwang / Edge
Used drive : HL-DT-STCD-RW GCE-8320B Adapter: 1 ID: 1
Read mode : Secure
Utilize accurate stream : Yes
Defeat audio cache : Yes
Make use of C2 pointers : No
Read offset correction : 12
Overread into Lead-In and Lead-Out : No
Fill up missing offset samples with silence : Yes
Delete leading and trailing silent blocks : No
Null samples used in CRC calculations : Yes
Used interface : Installed external ASPI interface
Gap handling : Appended to previous track
Used output format : User Defined Encoder
Selected bitrate : 320 kBit/s
Quality : High
Add ID3 tag : No
Command line compressor : C:\Program Files\Exact Audio Copy\Flac\flac.exe
Additional command line options : -V -8 -T "artist=%a" -T "title=%t" -T "album=%g" -T "date=%y" -T "tracknumber=%n" -T "genre=%m" %s
TOC of the extracted CD
Track | Start | Length | Start sector | End sector
---------------------------------------------------------
1 | 0:00.00 | 12:32.45 | 0 | 56444
2 | 12:32.45 | 9:49.49 | 56445 | 100668
3 | 22:22.19 | 7:56.05 | 100669 | 136373
4 | 30:18.24 | 12:06.61 | 136374 | 190884
Track 1
Filename D:\Torrent\Jason Kao Hwang - Edge (2006) [FLAC]\01 - No Myth.wav
Pre-gap length 0:00:02.00
Peak level 99.6 %
Track quality 100.0 %
Test CRC D2CF1F23
Copy CRC D2CF1F23
Track not present in AccurateRip database
Copy OK
Track 2
Filename D:\Torrent\Jason Kao Hwang - Edge (2006) [FLAC]\02 - Threads.wav
Peak level 99.7 %
Track quality 100.0 %
Test CRC 23EF882C
Copy CRC 23EF882C
Track not present in AccurateRip database
Copy OK
Track 3
Filename D:\Torrent\Jason Kao Hwang - Edge (2006) [FLAC]\03 - Parallel Meditations.wav
Pre-gap length 0:00:01.14
Peak level 95.4 %
Track quality 100.0 %
Test CRC 13345768
Copy CRC 13345768
Track not present in AccurateRip database
Copy OK
Track 4
Filename D:\Torrent\Jason Kao Hwang - Edge (2006) [FLAC]\04 - Grassy Hills.wav
Peak level 80.2 %
Track quality 100.0 %
Test CRC 1F1DB684
Copy CRC 1F1DB684
Track not present in AccurateRip database
Copy OK
None of the tracks are present in the AccurateRip database
No errors occurred
End of status report
 
.cue
REM GENRE Jazz
REM DATE 2006
REM DISCID 2909F104
REM COMMENT "ExactAudioCopy v0.99pb4"
PERFORMER "Jason Kao Hwang"
TITLE "Edge"
FILE "01 - No Myth.wav" WAVE
TRACK 01 AUDIO
TITLE "No Myth"
PERFORMER "Jason Kao Hwang"
INDEX 01 00:00:00
FILE "02 - Threads.wav" WAVE
TRACK 02 AUDIO
TITLE "Threads"
PERFORMER "Jason Kao Hwang"
INDEX 01 00:00:00
TRACK 03 AUDIO
TITLE "Parallel Meditations"
PERFORMER "Jason Kao Hwang"
INDEX 00 09:48:38
FILE "03 - Parallel Meditations.wav" WAVE
INDEX 01 00:00:00
FILE "04 - Grassy Hills.wav" WAVE
TRACK 04 AUDIO
TITLE "Grassy Hills"
PERFORMER "Jason Kao Hwang"
INDEX 01 00:00:00
 
.accurip
[CUETools log; Date: 1/12/2011 11:14:20 AM; Version: 2.1.2a]
[CTDB TOCID: cOofhu3c_vbb9Kt110ZbdPaRLPM-] disk not present in database.
[AccurateRip ID: 00076415-001d37c3-2909f104] found.
Track [ CRC ] Status
01 [c53c6baa] (1/1) Accurately ripped
02 [bbee6f7d] (1/1) Accurately ripped
03 [20882620] (1/1) Accurately ripped
04 [67dab633] (1/1) Accurately ripped
Track Peak [ CRC32 ] [W/O NULL] [ LOG ]
-- 99.6 [FE5D8AE2] [2DA5889F]
01 99.6 [D2CF1F23] [7BFCE5EF] CRC32
02 99.6 [23EF882C] [C3074662] CRC32
03 95.4 [13345768] [6A2B6D41] CRC32
04 80.2 [1F1DB684] [0790CAAB] CRC32

другие релизы
Any questions -> support@pro-jazz.com. По всем вопросам пишите -> support@pro-jazz.com
01:08
156
Нет комментариев. Ваш будет первым!