Вы используете незарегистрированную версию компонента "Вкладки"!

Поиск

(jazz, avant.garde, free.jazz) Sonny Simmons - Staying on the Watch 1966, FLAC (tracks+.cue), lossless

(jazz, avant.garde, free.jazz) Sonny Simmons - Staying on the Watch 1966, FLAC (tracks+.cue), lossless
Треклист:


Sonny Simmons - Staying on the Watch
Жанр: jazz,Avant-Garde,Free Jazz
Год выпуска: 1966
Формат: FLAC (tracks+.cue)
Битрейт аудио: lossless
Продолжительность
Источник: nnm
Barbara Donald Trumpet
John Hicks Piano
Marvin Pattillo Percussion
Sonny Simmons Sax (Alto)
Teddy Smith Bass

tracks

1 Metamorphosis Simmons 11:30
2 A Distant Voice Simmons 7:16
3 City of David Simmons 14:57
4 Interplanetary Travelers Simmons 9:18


 
logfile
X Lossless Decoder version 20100505 (119.1)
XLD extraction logfile from 2010-05-07 20:27:56 -0400
Sonny Simmons / Staying on the Watch
Used drive : HL-DT-ST DVDRW GSA-S10N (revision AP09)
Use cdparanoia mode : YES (CDParanoia III 10.2 engine)
Disable audio cache : OK for the drive with cache less than 2750KB
Make use of C2 pointers : NO
Read offset correction : 667
Max retry count : 100
TOC of the extracted CD
Track | Start | Length | Start sector | End sector
---------------------------------------------------------
1 | 00:00:00 | 11:51:59 | 0 | 53383
2 | 11:51:59 | 07:34:08 | 53384 | 87441
3 | 19:25:67 | 15:22:01 | 87442 | 156592
4 | 34:47:68 | 09:35:22 | 156593 | 199739
All Tracks
Album gain : -4.07 dB
Peak : 1.000000
Track 01
Filename : /Volumes/LaCie/2010/2010 flacs/01 - Metamorphosis.flac
/Volumes/LaCie/2010/2010 flacs/01 - Metamorphosis.mp3
Pre-gap length : 00:02:00
Track gain : -4.00 dB
Peak : 1.000000
CRC32 hash (test run) : A7E27758
CRC32 hash : A7E27758
CRC32 hash (skip zero) : 56677135
AccurateRip signature : 468DF69C
->Track not present in AccurateRip database.
Statistics
Read error : 0
Skipped (treated as error) : 0
Edge jitter error (maybe fixed) : 0
Atom jitter error (maybe fixed) : 0
Drift error (maybe fixed) : 0
Dropped bytes error (maybe fixed) : 0
Duplicated bytes error (maybe fixed) : 0
Inconsistency in error sectors : 0
Track 02
Filename : /Volumes/LaCie/2010/2010 flacs/02 - A Distant Voice.flac
/Volumes/LaCie/2010/2010 flacs/02 - A Distant Voice.mp3
Pre-gap length : 00:02:00
Track gain : -1.99 dB
Peak : 0.927948
CRC32 hash (test run) : D0A6B846
CRC32 hash : D0A6B846
CRC32 hash (skip zero) : B3BB1A53
AccurateRip signature : 9C43B96B
->Track not present in AccurateRip database.
Statistics
Read error : 0
Skipped (treated as error) : 0
Edge jitter error (maybe fixed) : 0
Atom jitter error (maybe fixed) : 0
Drift error (maybe fixed) : 0
Dropped bytes error (maybe fixed) : 0
Duplicated bytes error (maybe fixed) : 0
Inconsistency in error sectors : 0
Track 03
Filename : /Volumes/LaCie/2010/2010 flacs/03 - City of David.flac
/Volumes/LaCie/2010/2010 flacs/03 - City of David.mp3
Pre-gap length : 00:02:00
Track gain : -4.38 dB
Peak : 1.000000
CRC32 hash (test run) : B1A838B4
CRC32 hash : B1A838B4
CRC32 hash (skip zero) : C26BB7E1
AccurateRip signature : E4E474BC
->Track not present in AccurateRip database.
Statistics
Read error : 0
Skipped (treated as error) : 0
Edge jitter error (maybe fixed) : 0
Atom jitter error (maybe fixed) : 0
Drift error (maybe fixed) : 0
Dropped bytes error (maybe fixed) : 0
Duplicated bytes error (maybe fixed) : 0
Inconsistency in error sectors : 0
Track 04
Filename : /Volumes/LaCie/2010/2010 flacs/04 - Interplanetary Travelers.flac
/Volumes/LaCie/2010/2010 flacs/04 - Interplanetary Travelers.mp3
Pre-gap length : 00:02:00
Track gain : -4.27 dB
Peak : 1.000000
CRC32 hash (test run) : 4DC380FA
CRC32 hash : 4DC380FA
CRC32 hash (skip zero) : 4982C574
AccurateRip signature : C235D71C
->Track not present in AccurateRip database.
Statistics
Read error : 0
Skipped (treated as error) : 0
Edge jitter error (maybe fixed) : 0
Atom jitter error (maybe fixed) : 0
Drift error (maybe fixed) : 0
Dropped bytes error (maybe fixed) : 0
Duplicated bytes error (maybe fixed) : 0
Inconsistency in error sectors : 0
No errors occurred
End of status report
 
.cue
REM ACCURATERIPID 00079607-001e6db7-2f0a6704
REM COMMENT "CUETools generated dummy CUE sheet"
PERFORMER "Sonny Simmons"
TITLE "Staying on the Watch"
REM DATE 2010
REM DISCNUMBER 1
REM TOTALDISCS 1
REM GENRE "Avant Jazz"
FILE "01 - Metamorphosis.flac" WAVE
TRACK 01 AUDIO
PERFORMER "Sonny Simmons"
TITLE "Metamorphosis"
INDEX 01 00:00:00
FILE "02 - A Distant Voice.flac" WAVE
TRACK 02 AUDIO
PERFORMER "Sonny Simmons"
TITLE "A Distant Voice"
INDEX 01 00:00:00
FILE "03 - City of David.flac" WAVE
TRACK 03 AUDIO
PERFORMER "Sonny Simmons"
TITLE "City of David"
INDEX 01 00:00:00
FILE "04 - Interplanetary Travelers.flac" WAVE
TRACK 04 AUDIO
PERFORMER "Sonny Simmons"
TITLE "Interplanetary Travelers"
INDEX 01 00:00:00
 
accurip
[CUETools log; Date: 22/11/2011 08:07:18 AM; Version: 2.1.2a]
[CTDB TOCID: uzYT_1mqRBbeBNeN6XzeKIAfTB8-] disk not present in database.
[AccurateRip ID: 00079607-001e6db7-2f0a6704] found.
Track [ CRC ] Status
01 [468df69c] (1/1) Accurately ripped
02 [9c43b96b] (1/1) Accurately ripped
03 [e4e474bc] (1/1) Accurately ripped
04 [c235d71c] (1/1) Accurately ripped
Track Peak [ CRC32 ] [W/O NULL]
-- 100.0 [9CF6CEA7] [2AC2E784]
01 100.0 [A7E27758] [56677135]
02 92.7 [D0A6B846] [B3BB1A53]
03 100.0 [B1A838B4] [C26BB7E1]
04 100.0 [4DC380FA] [4982C574]

другие релизы
Any questions -> support@pro-jazz.com. По всем вопросам пишите -> support@pro-jazz.com
08:13
130
Нет комментариев. Ваш будет первым!