Поиск

(jazz, avant.garde, free.jazz) John Coltrane - The Paris Concert - 1962, FLAC (tracks + .cue), lossless

Треклист:
John Coltrane - The Paris Concert(1962)
Страна: usa
Жанр: jazz
Год выпуска: 1962
Формат:FLAC (tracks + .cue)
Битрейт аудио: lossless
Продолжительность: 41:47

track list:

01 Mr. P.C
02 The Inch Worm
03 Ev'ry Time We Say Goodbye




БИОГРАФИЯ и ДИСКОГРАФИЯ Джона Колтрейна
logfile
 
скрытый текст
Exact Audio Copy V0.99 prebeta 3 from 28. July 2007
EAC extraction logfile from 12. August 2008, 14:33
John Coltrane / The Paris Concert
Used drive : HL-DT-STCD-RW GCE-8527B Adapter: 1 ID: 1
Read mode : Secure
Utilize accurate stream : Yes
Defeat audio cache : Yes
Make use of C2 pointers : No
Read offset correction : 6
Overread into Lead-In and Lead-Out : No
Fill up missing offset samples with silence : Yes
Delete leading and trailing silent blocks : No
Null samples used in CRC calculations : No
Used interface : Native Win32 interface for Win NT & 2000
Gap handling : Not detected, thus appended to previous track
Used output format : User Defined Encoder
Selected bitrate : 128 kBit/s
Quality : High
Add ID3 tag : Yes
Command line compressor : C:\Program Files\FLAC\flac.exe
Additional command line options : -V -8 -T "artist=%a" -T "title=%t" -T "album=%g" -T "date=%y" -T "tracknumber=%n" -T "genre=%m" -T "comment=Encoded by FLAC v1.1.4a for torrent.ru" %s
TOC of the extracted CD
Track | Start | Length | Start sector | End sector
---------------------------------------------------------
1 | 0:00.00 | 26:30.25 | 0 | 119274
2 | 26:30.25 | 10:18.20 | 119275 | 165644
3 | 36:48.45 | 4:58.40 | 165645 | 188034
Track 1
Filename C:\Documents and Settings\sasha\My Documents\Torrents\o\John Coltrane(1962) - The Paris Concert\01 - Mr. P.C..wav
Peak level 100.0 %
Track quality 100.0 %
Copy CRC 46142682
Cannot be verified as accurate (confidence 1) [76A18815], AccurateRip returned [3AA7676D]
Copy OK
Track 2
Filename C:\Documents and Settings\sasha\My Documents\Torrents\o\John Coltrane(1962) - The Paris Concert\02 - The Inch Worm.wav
Peak level 94.4 %
Track quality 100.0 %
Copy CRC 73994B45
Cannot be verified as accurate (confidence 1) [0E9A8DAC], AccurateRip returned [C01C5FD1]
Copy OK
Track 3
Filename C:\Documents and Settings\sasha\My Documents\Torrents\o\John Coltrane(1962) - The Paris Concert\03 - Ev'ry Time We Say Goodbye.wav
Peak level 56.3 %
Track quality 99.9 %
Copy CRC 00C65F41
Cannot be verified as accurate (confidence 1) [7A5DF9C7], AccurateRip returned [D5AF939C]
Copy OK
No tracks could be verified as accurate
You may have a different pressing from the one(s) in the database
No errors occurred
End of status report

другие релизы
Приватный:
Нет (DHT включён)
Размер:
268.42 Мб (281,455,430 байт) » файлов: 10
Участники:
0 раздают, 0 качают (0 участников всего)
Внешние участники:
1 раздают, 0 качают (1 участников всего) [ Обновить ]
Есть вопросы - пишите личное сообщение пользователю M0p94ok.
22:31
67
Нет комментариев. Ваш будет первым!