Вы используете незарегистрированную версию компонента "Вкладки"!

Поиск

(jazz, avant-garde, free jazz) Exploding Customer - Live At Glenn Miller Cafe [2002] & Live At Tampere Jazz Happening [2006] {ayler records}, FLAC (tracks+.cue), lossless

(jazz, avant-garde, free jazz) Exploding Customer - Live At Glenn Miller Cafe [2002] & Live At Tampere Jazz Happening [2006] {ayler records}, FLAC (tracks+.cue), lossless
Треклист:

Exploding Customer
Live At Glenn Miller Cafe [2002] & Live At Tampere Jazz Happening [2006]

Жанр: jazz, avant-garde, free jazz
Год выпуска: 2002 & 2006
Формат: FLAC (tracks+.cue)
Битрейт аудио: lossless
Продолжительность:
Источник: ed2k
Live At Glenn Miller Cafe

Martin Kuchen (ss, as, ts)
Kjell Nordeson (dr)
Tomas Hallonsten (tp)
Benjamin Quigley (b)
recorded May 27, 2002
Glenn Miller Cafe, Stockholm, Sweden
released in 2002
ayler records
aylCD-030

1. (00:10:37) Samael / Smash Hits On Several Exits (we won't let you in!)
2. (00:09:51) Quoting Frippe: (what's the name of the bass player?)
3. (00:09:44) Pygmi
4. (00:10:41) A Broken Glass
5. (00:05:24) Corsican Train
6. (00:07:42) Tango Du Prison
7. (00:08:51) Speak!

 
logfile
Exact Audio Copy V0.99 prebeta 4 from 23. January 2008
EAC extraction logfile from 7. May 2009, 21:04
Exploding Customer / Live At Glenn Miller Cafe
Used drive : PLEXTOR CD-R PREMIUM2 Adapter: 3 ID: 0
Read mode : Secure
Utilize accurate stream : Yes
Defeat audio cache : Yes
Make use of C2 pointers : No
Read offset correction : 30
Overread into Lead-In and Lead-Out : Yes
Fill up missing offset samples with silence : Yes
Delete leading and trailing silent blocks : No
Null samples used in CRC calculations : Yes
Used interface : Native Win32 interface for Win NT & 2000
Gap handling : Appended to previous track
Used output format : User Defined Encoder
Selected bitrate : 128 kBit/s
Quality : High
Add ID3 tag : No
Command line compressor : D:\Programme\EAC099\Flac\flac.exe
Additional command line options : -5 -V -T "ARTIST=%a" -T "TITLE=%t" -T "ALBUM=%g" -T "DATE=%y" -T "TRACKNUMBER=%n" -T "TOTALTRACKS=%x" -T "GENRE=%m" -T "ALBUM ARTIST=%v" -T "ALBUMARTIST=%v" -T "COMMENT=EAC V0.99 prebeta 4, Secure Mode, Test & Copy, Accurat
TOC of the extracted CD
Track | Start | Length | Start sector | End sector
---------------------------------------------------------
1 | 0:00.00 | 10:37.19 | 0 | 47793
2 | 10:37.19 | 9:51.29 | 47794 | 92147
3 | 20:28.48 | 9:44.03 | 92148 | 135950
4 | 30:12.51 | 10:40.66 | 135951 | 184016
5 | 40:53.42 | 5:24.00 | 184017 | 208316
6 | 46:17.42 | 7:41.60 | 208317 | 242951
7 | 53:59.27 | 8:50.68 | 242952 | 282769
Track 1
Filename E:\Exploding Customer - Live At Glenn Miller Cafe (2002) [FLAC] {ayler records aylCD-030}\01 - Samael - Smash Hits On Several Exits (we won't let you in!).wav
Pre-gap length 0:00:02.00
Peak level 96.4 %
Track quality 100.0 %
Test CRC 5ED3A7D2
Copy CRC 5ED3A7D2
Track not present in AccurateRip database
Copy OK
Track 2
Filename E:\Exploding Customer - Live At Glenn Miller Cafe (2002) [FLAC] {ayler records aylCD-030}\02 - Quoting Frippe. (what's the name of the bass player).wav
Peak level 99.8 %
Track quality 99.9 %
Test CRC 301A086F
Copy CRC 301A086F
Track not present in AccurateRip database
Copy OK
Track 3
Filename E:\Exploding Customer - Live At Glenn Miller Cafe (2002) [FLAC] {ayler records aylCD-030}\03 - Pygmi.wav
Peak level 94.2 %
Track quality 100.0 %
Test CRC 05AC434B
Copy CRC 05AC434B
Track not present in AccurateRip database
Copy OK
Track 4
Filename E:\Exploding Customer - Live At Glenn Miller Cafe (2002) [FLAC] {ayler records aylCD-030}\04 - A Broken Glass.wav
Peak level 94.1 %
Track quality 99.9 %
Test CRC F88DED53
Copy CRC F88DED53
Track not present in AccurateRip database
Copy OK
Track 5
Filename E:\Exploding Customer - Live At Glenn Miller Cafe (2002) [FLAC] {ayler records aylCD-030}\05 - Corsican Train.wav
Peak level 94.5 %
Track quality 100.0 %
Test CRC 398221A4
Copy CRC 398221A4
Track not present in AccurateRip database
Copy OK
Track 6
Filename E:\Exploding Customer - Live At Glenn Miller Cafe (2002) [FLAC] {ayler records aylCD-030}\06 - Tango Du Prison.wav
Peak level 94.4 %
Track quality 100.0 %
Test CRC 3E81C1E3
Copy CRC 3E81C1E3
Track not present in AccurateRip database
Copy OK
Track 7
Filename E:\Exploding Customer - Live At Glenn Miller Cafe (2002) [FLAC] {ayler records aylCD-030}\07 - Speak!.wav
Peak level 91.6 %
Track quality 100.0 %
Test CRC C65B2F77
Copy CRC C65B2F77
Track not present in AccurateRip database
Copy OK
None of the tracks are present in the AccurateRip database
No errors occurred
End of status report


Live At Tampere Jazz Happening

Martin Kuchen (as, ts)
Kjell Nordeson (dr)
Tomas Hallonsten (tp)
Benjamin Quigley (b)
recorded November 6, 2004
Old Custom House, Tampere, Finland
released in 2006
ayler records
aylCD-031

1. (00:05:04) Mr BP
2. (00:03:21) Child, Child
3. (00:06:58) Quoting Frippe: (What's The Name Of The Bass Player?)
4. (00:03:38) The Prophet's Ad (Bowing For The Man?)
5. (00:07:00) The Crying Whip
6. (00:04:27) Peace Is Not For Us II
7. (00:06:43) Gone Herero
8. (00:09:06) A Broken Glass
9. (00:04:05) Too Much Money

 
logfile
Exact Audio Copy V0.99 prebeta 4 from 23. January 2008
EAC extraction logfile from 7. May 2009, 21:32
Exploding Customer / Live At Tampere Jazz Happening
Used drive : PLEXTOR CD-R PREMIUM2 Adapter: 3 ID: 0
Read mode : Secure
Utilize accurate stream : Yes
Defeat audio cache : Yes
Make use of C2 pointers : No
Read offset correction : 30
Overread into Lead-In and Lead-Out : Yes
Fill up missing offset samples with silence : Yes
Delete leading and trailing silent blocks : No
Null samples used in CRC calculations : Yes
Used interface : Native Win32 interface for Win NT & 2000
Gap handling : Appended to previous track
Used output format : User Defined Encoder
Selected bitrate : 128 kBit/s
Quality : High
Add ID3 tag : No
Command line compressor : D:\Programme\EAC099\Flac\flac.exe
Additional command line options : -5 -V -T "ARTIST=%a" -T "TITLE=%t" -T "ALBUM=%g" -T "DATE=%y" -T "TRACKNUMBER=%n" -T "TOTALTRACKS=%x" -T "GENRE=%m" -T "ALBUM ARTIST=%v" -T "ALBUMARTIST=%v" -T "COMMENT=EAC V0.99 prebeta 4, Secure Mode, Test & Copy, Accurat
TOC of the extracted CD
Track | Start | Length | Start sector | End sector
---------------------------------------------------------
1 | 0:00.00 | 5:04.37 | 0 | 22836
2 | 5:04.37 | 3:20.40 | 22837 | 37876
3 | 8:25.02 | 6:57.63 | 37877 | 69214
4 | 15:22.65 | 3:38.30 | 69215 | 85594
5 | 19:01.20 | 7:00.34 | 85595 | 117128
6 | 26:01.54 | 4:26.46 | 117129 | 137124
7 | 30:28.25 | 6:43.25 | 137125 | 167374
8 | 37:11.50 | 9:06.10 | 167375 | 208334
9 | 46:17.60 | 4:04.60 | 208335 | 226694
Track 1
Filename E:\Exploding Customer - Live At Tampere Jazz Happening (2006) [FLAC] {ayler records aylCD-031}\01 - Mr BP.wav
Pre-gap length 0:00:02.00
Peak level 98.8 %
Track quality 99.9 %
Test CRC 3C8FB5F5
Copy CRC 3C8FB5F5
Track not present in AccurateRip database
Copy OK
Track 2
Filename E:\Exploding Customer - Live At Tampere Jazz Happening (2006) [FLAC] {ayler records aylCD-031}\02 - Child, Child.wav
Peak level 98.8 %
Track quality 100.0 %
Test CRC 534BDE65
Copy CRC 534BDE65
Track not present in AccurateRip database
Copy OK
Track 3
Filename E:\Exploding Customer - Live At Tampere Jazz Happening (2006) [FLAC] {ayler records aylCD-031}\03 - Quoting Frippe. (What's The Name Of The Bass Player).wav
Peak level 98.8 %
Track quality 100.0 %
Test CRC 55A3196C
Copy CRC 55A3196C
Track not present in AccurateRip database
Copy OK
Track 4
Filename E:\Exploding Customer - Live At Tampere Jazz Happening (2006) [FLAC] {ayler records aylCD-031}\04 - The Prophet's Ad (Bowing For The Man).wav
Peak level 98.8 %
Track quality 100.0 %
Test CRC 37993601
Copy CRC 37993601
Track not present in AccurateRip database
Copy OK
Track 5
Filename E:\Exploding Customer - Live At Tampere Jazz Happening (2006) [FLAC] {ayler records aylCD-031}\05 - The Crying Whip.wav
Peak level 98.8 %
Track quality 100.0 %
Test CRC 37AC461B
Copy CRC 37AC461B
Track not present in AccurateRip database
Copy OK
Track 6
Filename E:\Exploding Customer - Live At Tampere Jazz Happening (2006) [FLAC] {ayler records aylCD-031}\06 - Peace Is Not For Us II.wav
Pre-gap length 0:00:02.78
Peak level 98.8 %
Track quality 99.9 %
Test CRC 9A2E58AC
Copy CRC 9A2E58AC
Track not present in AccurateRip database
Copy OK
Track 7
Filename E:\Exploding Customer - Live At Tampere Jazz Happening (2006) [FLAC] {ayler records aylCD-031}\07 - Gone Herero.wav
Peak level 98.8 %
Track quality 100.0 %
Test CRC 014FFC65
Copy CRC 014FFC65
Track not present in AccurateRip database
Copy OK
Track 8
Filename E:\Exploding Customer - Live At Tampere Jazz Happening (2006) [FLAC] {ayler records aylCD-031}\08 - A Broken Glass.wav
Pre-gap length 0:00:02.60
Peak level 98.8 %
Track quality 100.0 %
Test CRC 76C0613F
Copy CRC 76C0613F
Track not present in AccurateRip database
Copy OK
Track 9
Filename E:\Exploding Customer - Live At Tampere Jazz Happening (2006) [FLAC] {ayler records aylCD-031}\09 - Too Much Money.wav
Peak level 98.8 %
Track quality 100.0 %
Test CRC 43B7DDEF
Copy CRC 43B7DDEF
Track not present in AccurateRip database
Copy OK
None of the tracks are present in the AccurateRip database
No errors occurred
End of status report


другие релизы
Any questions -> support@pro-jazz.com. По всем вопросам пишите -> support@pro-jazz.com
12:29
152
Нет комментариев. Ваш будет первым!